<?xml version="1.0" standalone="no"?>
<!DOCTYPE svg PUBLIC "-//W3C//DTD SVG 1.1//EN" "http://www.w3.org/Graphics/SVG/1.1/DTD/svg11.dtd" >
<svg xmlns="http://www.w3.org/2000/svg">
<metadata>Generated by IcoMoon</metadata>
<defs>
<font id="icomoon" horiz-adv-x="1024">
<font-face units-per-em="1024" ascent="960" descent="-64" />
<missing-glyph horiz-adv-x="1024" />
<glyph unicode="&#x20;" horiz-adv-x="512" d="" />
<glyph unicode="&#xe900;" glyph-name="pa-blob-generator-section-addon" d="M512-64c-6.339 0.025-12.408 1.149-18.036 3.19l0.372-0.118c-19.741 7.406-33.536 26.12-33.536 48.056 0 0.025 0 0.050 0 0.075v-0.004 325.12h-409.6c-27.965 0.407-50.478 23.172-50.478 51.195 0 12.622 4.567 24.177 12.139 33.103l-0.061-0.074 460.8 545.28c9.428 10.657 23.137 17.342 38.407 17.342 27.984 0 50.724-22.45 51.193-50.322l0.001-0.044v-325.12h409.6c27.965-0.407 50.478-23.172 50.478-51.195 0-12.622-4.567-24.177-12.139-33.103l0.061 0.074-460.8-545.28c-9.299-10.969-23.012-17.949-38.361-18.176h-0.039zM161.536 414.72h350.464c28.277 0 51.2-22.923 51.2-51.2v0-235.52l299.264 353.28h-350.464c-28.277 0-51.2 22.923-51.2 51.2v0 235.52z" />
<glyph unicode="&#xe901;" glyph-name="pa-woo-products-listing-widget" horiz-adv-x="847" d="M845.824 138.752l-73.472 473.856c-10.289 59.506-61.523 104.194-123.195 104.194-0.249 0-0.498-0.001-0.747-0.002h-14.042v37.888c0 113.108-91.692 204.8-204.8 204.8s-204.8-91.692-204.8-204.8v0-37.888h-25.6c-62.403-0.009-114.158-45.584-123.808-105.264l-0.096-0.72-72.96-471.552c-1.45-8.465-2.279-18.216-2.279-28.16 0-96.609 78.237-174.944 174.808-175.104h496.911c0.348-0.003 0.761-0.004 1.173-0.004 96.707 0 175.104 78.397 175.104 175.104 0 9.763-0.799 19.34-2.335 28.668l0.138-1.016zM326.144 754.688c0 56.554 45.846 102.4 102.4 102.4s102.4-45.846 102.4-102.4v0-37.888h-204.8zM727.040 63.488c-13.4-15.686-33.191-25.573-55.291-25.6h-496.901c-0.034 0-0.075 0-0.116 0-40.012 0-72.448 32.436-72.448 72.448 0 4.524 0.415 8.952 1.208 13.246l-0.068-0.446 72.192 473.088c2.214 10.449 11.361 18.177 22.313 18.177 0.075 0 0.151 0 0.226-0.001h450.292c0.033 0 0.072 0 0.111 0 11.277 0 20.662-8.102 22.651-18.802l0.022-0.142 72.192-472.832c0.627-3.561 0.985-7.661 0.985-11.844 0-17.92-6.576-34.304-17.446-46.871l0.077 0.091z" />
<glyph unicode="&#xe902;" glyph-name="alert-box" horiz-adv-x="992" d="M987.392 79.104c-8.324-17.678-25.991-29.696-46.465-29.696-0.045 0-0.089 0-0.134 0h-329.209c-4.149-60.371-54.139-107.772-115.2-107.772s-111.051 47.401-115.18 107.413l-0.020 0.359h-329.728c-0.038 0-0.082 0-0.127 0-20.474 0-38.142 12.018-46.333 29.384l-0.132 0.312c-2.971 6.289-4.705 13.661-4.705 21.439 0 12.65 4.587 24.228 12.189 33.162l-0.060-0.073c67.072 78.336 99.84 186.368 99.84 318.464v108.288c0.234 53.87 10.74 105.22 29.659 152.283l-0.987-2.779c7.952 18.591 26.087 31.381 47.208 31.381 28.277 0 51.2-22.923 51.2-51.2 0-6.109-1.070-11.969-3.033-17.401l0.113 0.357c-13.548-33.354-21.516-72.032-21.76-112.542v-108.386c0.155-5.219 0.243-11.359 0.243-17.519 0-103.194-24.78-200.6-68.714-286.592l1.655 3.568h696.832c-42.279 82.425-67.059 179.831-67.059 283.025 0 6.16 0.088 12.3 0.264 18.418l-0.020-0.899v108.288c0 163.84-128 297.216-281.6 297.216-80.494-0.042-152.754-35.258-202.25-91.11l-0.246-0.282c-9.47-10.568-23.162-17.187-38.4-17.187-28.438 0-51.491 23.053-51.491 51.491 0 13.2 4.967 25.24 13.134 34.353l-0.043-0.049c68.984 76.751 168.489 124.89 279.243 125.184h0.053c211.2 0 384-179.2 384-399.616v-108.288c0-132.864 33.536-240.128 100.608-318.464 7.244-8.766 11.637-20.12 11.637-32.5 0-8.006-1.838-15.584-5.114-22.333l0.133 0.304z" />
<glyph unicode="&#xe903;" glyph-name="animated-gradients" horiz-adv-x="826" d="M825.6 360.96c0.102-3.432 0.161-7.47 0.161-11.52 0-228.123-184.758-413.094-412.8-413.44h-0.033c-228.075 0.346-412.833 185.317-412.833 413.44 0 4.051 0.058 8.089 0.174 12.112l-0.013-0.592c1.13 27.404 23.621 49.193 51.2 49.193 28.3 0 51.241-22.941 51.241-51.241 0-0.72-0.015-1.437-0.044-2.15l0.003 0.102c-0.060-2.287-0.095-4.98-0.095-7.68 0-171.495 138.905-310.546 310.344-310.784h0.023c171.462 0.238 310.367 139.289 310.367 310.784 0 2.701-0.034 5.393-0.103 8.077l0.008-0.397c-10.24 244.736-231.68 430.848-310.272 489.216-61.44-45.312-208.384-167.68-275.712-334.080-5.12-12.544-9.728-25.6-13.824-38.4-6.736-20.947-26.050-35.84-48.842-35.84-0.019 0-0.038 0-0.057 0h0.003c-5.484 0.014-10.767 0.855-15.737 2.405l0.377-0.101c-20.981 6.716-35.905 26.046-35.905 48.862 0 5.497 0.866 10.793 2.47 15.756l-0.101-0.362c4.864 15.36 10.496 30.976 16.64 46.080 94.464 233.984 314.88 384 340.992 400.128l2.304 1.536 3.84 2.304 3.84 1.792 5.632 1.792c1.978 0.854 4.296 1.564 6.704 2.016l0.208 0.032h7.168c1.422 0.181 3.067 0.284 4.736 0.284s3.314-0.103 4.929-0.303l-0.193 0.020c0.654 0.112 1.408 0.176 2.176 0.176s1.522-0.064 2.255-0.187l-0.079 0.011c1.729-0.308 3.275-0.842 4.699-1.579l-0.091 0.043c2.054-0.622 3.836-1.405 5.499-2.37l-0.123 0.066 5.888-3.584c34.816-24.832 368.896-251.392 382.976-591.616z" />
<glyph unicode="&#xe904;" glyph-name="background-transition" d="M512 199.424c-137.285 0-248.576 111.291-248.576 248.576s111.291 248.576 248.576 248.576c137.285 0 248.576-111.291 248.576-248.576v0c-0.291-137.168-111.409-248.285-248.548-248.576h-0.028zM512 594.176c-80.731 0-146.176-65.445-146.176-146.176s65.445-146.176 146.176-146.176c80.731 0 146.176 65.445 146.176 146.176v0c0 80.731-65.445 146.176-146.176 146.176v0zM512 755.2c-28.277 0-51.2 22.923-51.2 51.2v0 102.4c0 28.277 22.923 51.2 51.2 51.2s51.2-22.923 51.2-51.2v0-102.4c0-28.277-22.923-51.2-51.2-51.2v0zM512-64c-28.277 0-51.2 22.923-51.2 51.2v0 102.4c0 28.277 22.923 51.2 51.2 51.2s51.2-22.923 51.2-51.2v0-102.4c0-28.277-22.923-51.2-51.2-51.2v0zM153.6 396.8h-102.4c-28.277 0-51.2 22.923-51.2 51.2s22.923 51.2 51.2 51.2v0h102.4c28.277 0 51.2-22.923 51.2-51.2s-22.923-51.2-51.2-51.2v0zM972.8 396.8h-102.4c-28.277 0-51.2 22.923-51.2 51.2s22.923 51.2 51.2 51.2v0h102.4c28.277 0 51.2-22.923 51.2-51.2s-22.923-51.2-51.2-51.2v0zM764.928 649.728c-0.012 0-0.027 0-0.041 0-28.277 0-51.2 22.923-51.2 51.2 0 14.212 5.791 27.072 15.142 36.349l72.707 72.707c9.271 9.271 22.078 15.004 36.224 15.004 28.293 0 51.228-22.936 51.228-51.228 0-14.146-5.734-26.953-15.004-36.224v0l-72.704-72.704c-9.276-9.33-22.119-15.104-36.311-15.104-0.014 0-0.029 0-0.043 0h0.002zM186.112 70.912c-0.012 0-0.027 0-0.041 0-28.277 0-51.2 22.923-51.2 51.2 0 14.212 5.791 27.072 15.142 36.349l72.707 72.707c9.271 9.271 22.078 15.004 36.224 15.004 28.293 0 51.228-22.936 51.228-51.228 0-14.146-5.734-26.953-15.004-36.224v0l-72.704-72.704c-9.276-9.33-22.119-15.104-36.311-15.104-0.014 0-0.029 0-0.043 0h0.002zM259.072 649.728c-0.012 0-0.026 0-0.041 0-14.192 0-27.035 5.774-36.309 15.102l-72.706 72.706c-9.271 9.271-15.004 22.078-15.004 36.224 0 28.293 22.936 51.228 51.228 51.228 14.146 0 26.953-5.734 36.224-15.004v0l72.704-72.704c9.354-9.28 15.145-22.14 15.145-36.352 0-28.277-22.923-51.2-51.2-51.2-0.014 0-0.029 0-0.043 0h0.002zM837.888 70.912c-0.012 0-0.026 0-0.041 0-14.192 0-27.035 5.774-36.309 15.102l-72.706 72.706c-9.271 9.271-15.004 22.078-15.004 36.224 0 28.293 22.936 51.228 51.228 51.228 14.146 0 26.953-5.734 36.224-15.004l72.704-72.704c9.354-9.28 15.145-22.14 15.145-36.352 0-28.277-22.923-51.2-51.2-51.2-0.014 0-0.029 0-0.043 0h0.002z" />
<glyph unicode="&#xe905;" glyph-name="behance-feed" d="M921.6 686.592h-265.984v66.56h265.984zM515.072 413.184c16.129-26.372 25.68-58.288 25.68-92.435 0-1.884-0.029-3.761-0.087-5.63l0.007 0.274c0.033-1.338 0.052-2.915 0.052-4.495 0-37.644-10.691-72.792-29.203-102.571l0.479 0.827c-26.295-43.778-69.259-75.257-119.9-85.809l-1.188-0.207c-26.73-5.71-57.441-8.98-88.916-8.98-1.501 0-2.999 0.007-4.496 0.022l0.229-0.002h-297.728v666.112h318.464q120.576-1.792 171.008-70.912c18.955-27.17 30.286-60.884 30.286-97.244 0-1.813-0.028-3.619-0.084-5.419l0.006 0.263c0.104-2.101 0.164-4.562 0.164-7.037 0-34.446-11.512-66.204-30.898-91.636l0.27 0.369c-14.164-15.607-31.163-28.349-50.225-37.468l-0.975-0.42c32.103-10.808 58.534-31.359 76.464-58.092l0.336-0.532zM153.6 517.888h138.24c1.644-0.074 3.572-0.116 5.51-0.116 23.558 0 45.664 6.215 64.769 17.095l-0.646-0.339c16.549 11.512 27.245 30.436 27.245 51.858 0 2.384-0.132 4.736-0.39 7.051l0.026-0.285c0.24 2.010 0.377 4.337 0.377 6.697 0 24.378-14.625 45.341-35.58 54.593l-0.382 0.15c-21.301 6.7-45.795 10.56-71.191 10.56-1.972 0-3.939-0.023-5.9-0.070l0.291 0.005h-122.368zM402.944 324.864c0.136 1.654 0.213 3.581 0.213 5.525 0 29.396-17.696 54.66-43.016 65.719l-0.462 0.18c-17.993 7.338-38.87 11.597-60.741 11.597-1.776 0-3.546-0.028-5.309-0.084l0.258 0.006h-140.288v-179.2h139.264c0.381-0.003 0.831-0.005 1.282-0.005 23.308 0 45.404 5.192 65.194 14.482l-0.94-0.396c26.295 14.463 43.817 41.982 43.817 73.594 0 3.385-0.201 6.723-0.591 10.003l0.038-0.397zM1020.928 433.408c2.383-20.017 3.743-43.2 3.743-66.701 0-9.945-0.243-19.833-0.725-29.658l0.054 1.384h-344.32c-0.111-1.89-0.175-4.1-0.175-6.325 0-38.958 19.468-73.369 49.207-94.036l0.376-0.247c18.274-11.292 40.428-17.983 64.145-17.983 1.389 0 2.773 0.023 4.152 0.069l-0.201-0.005c1.226-0.053 2.664-0.082 4.109-0.082 24.532 0 47.050 8.627 64.684 23.013l-0.185-0.146c10.601 8.834 19.216 19.658 25.342 31.941l0.258 0.571h126.208c-5.523-34.381-21.612-64.291-44.775-87.016l-0.025-0.024c-41.573-43.242-99.909-70.105-164.519-70.105-5.165 0-10.29 0.172-15.37 0.51l0.689-0.037c-0.994-0.014-2.168-0.022-3.344-0.022-62.153 0-119.132 22.149-163.476 58.985l0.42-0.339c-48.128 39.424-72.192 102.4-72.192 191.232q0 124.416 65.024 190.464c41.049 41.065 97.766 66.465 160.415 66.465 3.005 0 5.996-0.058 8.973-0.174l-0.428 0.013c1.251 0.021 2.726 0.033 4.205 0.033 38.754 0 75.591-8.209 108.867-22.983l-1.712 0.679c33.859-15.807 61.507-40.085 80.953-70.161l0.455-0.751c19.108-27.935 32.438-61.308 37.491-97.336l0.141-1.224zM896 421.888c-0.339 29.803-13.048 56.572-33.222 75.466l-0.058 0.054c-18.512 15.954-42.793 25.67-69.344 25.67-1.362 0-2.717-0.026-4.066-0.076l0.195 0.006c-1.181 0.051-2.567 0.080-3.959 0.080-26.804 0-51.089-10.784-68.754-28.249l0.009 0.009c-18.191-19.387-30.505-44.484-33.983-72.326l-0.065-0.634z" />
<glyph unicode="&#xe906;" glyph-name="charts" d="M417.536-64c-228.348 5.805-411.243 192.296-411.243 421.504s182.895 415.698 410.706 421.493l0.538 0.011c28.277 0 51.2-22.923 51.2-51.2v0-318.464h314.88c28.277 0 51.2-22.923 51.2-51.2v0c0.004-0.687 0.006-1.499 0.006-2.312 0-230.973-186.516-418.384-417.148-419.832l-0.138-0.001zM366.336 671.488c-150.508-27.256-263.166-157.285-263.166-313.626 0-174.442 140.255-316.126 314.148-318.435l0.218-0.002c156.431 0.852 285.928 115.088 310.535 264.661l0.249 1.835h-310.784c-28.277 0-51.2 22.923-51.2 51.2v0zM972.8 486.912h-366.080c-28.277 0-51.2 22.923-51.2 51.2v0 370.688c0 28.277 22.923 51.2 51.2 51.2v0c230.769-1.45 417.284-188.86 417.284-419.832 0-0.633-0.001-1.265-0.004-1.897v0.097c0-0.076 0.001-0.166 0.001-0.256 0-28.277-22.923-51.2-51.2-51.2 0 0 0 0-0.001 0v0zM657.92 589.312h259.584c-21.95 134.407-125.709 239.377-257.664 262.884l-1.92 0.284z" />
<glyph unicode="&#xe907;" glyph-name="content-switcher" d="M712.192 742.4h-400.384c-1.401 0.023-3.054 0.036-4.71 0.036-166.884 0-302.687-133.071-307.090-298.893l-0.009-0.408c4.411-166.229 140.214-299.3 307.098-299.3 1.656 0 3.309 0.013 4.958 0.039l-0.249-0.003h400.384c1.401-0.023 3.054-0.036 4.71-0.036 166.884 0 302.687 133.071 307.090 298.893l0.009 0.408c-4.411 166.229-140.214 299.3-307.098 299.3-1.656 0-3.309-0.013-4.958-0.039l0.249 0.003zM712.192 242.176h-400.384c-1.382-0.034-3.010-0.053-4.643-0.053-111.776 0-202.638 89.546-204.762 200.814l-0.003 0.199c2.127 111.467 92.989 201.013 204.765 201.013 1.633 0 3.261-0.019 4.884-0.057l-0.241 0.004h400.384c1.382 0.034 3.010 0.053 4.643 0.053 111.776 0 202.638-89.546 204.762-200.814l0.003-0.199c-2.127-111.467-92.989-201.013-204.765-201.013-1.633 0-3.261 0.019-4.884 0.057l0.241-0.004zM843.52 443.136c0-70.268-59.371-127.232-132.608-127.232s-132.608 56.964-132.608 127.232c0 70.268 59.371 127.232 132.608 127.232s132.608-56.964 132.608-127.232z" />
<glyph unicode="&#xe908;" glyph-name="divider" d="M701.184 501.76h269.056c29.691 0 53.76-24.069 53.76-53.76s-24.069-53.76-53.76-53.76h-269.056c-29.691 0-53.76 24.069-53.76 53.76s24.069 53.76 53.76 53.76zM53.76 501.76h269.056c29.691 0 53.76-24.069 53.76-53.76s-24.069-53.76-53.76-53.76h-269.056c-29.691 0-53.76 24.069-53.76 53.76s24.069 53.76 53.76 53.76zM565.76 547.84v-199.68c0-29.691-24.069-53.76-53.76-53.76s-53.76 24.069-53.76 53.76v199.68c0 29.691 24.069 53.76 53.76 53.76s53.76-24.069 53.76-53.76z" />
<glyph unicode="&#xe909;" glyph-name="facebook-feed-1" d="M1024 448c0 282.77-229.23 512-512 512s-512-229.23-512-512c0-282.77 229.23-512 512-512v0h8.96v398.592h-110.080v128h110.080v94.72c0 109.312 66.816 168.96 164.352 168.96 0.851 0.003 1.859 0.005 2.868 0.005 33.709 0 66.983-1.861 99.725-5.487l-4.033 0.363v-114.432h-67.072c-52.992 0-63.488-25.6-63.488-62.208v-81.408h128l-16.384-128h-111.616v-379.392c215.808 63.424 370.688 259.681 370.688 492.113 0 0.062 0 0.123 0 0.185v-0.009z" />
<glyph unicode="&#xe90a;" glyph-name="facebook-feed-2" horiz-adv-x="553" d="M532.736 960h-132.864c-148.736 0-245.504-99.072-245.504-251.904v-116.224h-133.632c-11.483-0.144-20.736-9.487-20.736-20.99 0-0.001 0-0.001 0-0.002v0-168.448c0-11.452 9.284-20.736 20.736-20.736h133.632v-424.704c0-0.007 0-0.016 0-0.025 0-11.233 8.824-20.406 19.918-20.965l0.050-0.002h174.336c11.483 0.144 20.736 9.487 20.736 20.99 0 0.001 0 0.001 0 0.002v0 424.704h156.16c0 0 0.001 0 0.002 0 11.504 0 20.846 9.253 20.99 20.722v168.462c-0.056 5.788-2.39 11.020-6.147 14.851l0.003-0.003c-3.815 3.776-9.055 6.117-14.843 6.144h-156.165v98.304c0 47.36 11.52 71.424 72.96 71.424h90.368c11.483 0.144 20.736 9.487 20.736 20.99 0 0.001 0 0.001 0 0.002v0 156.16c0.004 0.152 0.006 0.332 0.006 0.512 0 11.452-9.284 20.736-20.736 20.736-0.002 0-0.004 0-0.007 0v0z" />
<glyph unicode="&#xe90b;" glyph-name="facebook-messenger-chat" horiz-adv-x="1016" d="M508.16 960c-281.6 0-508.16-212.224-508.16-474.112 1.31-150.237 74.076-283.21 185.921-366.748l1.215-0.868v-182.272l170.496 97.024c43.79-12.85 94.098-20.242 146.132-20.242 1.546 0 3.090 0.007 4.633 0.020l-0.237-0.002c281.6 0 508.16 212.224 508.16 474.112s-226.56 473.088-508.16 473.088zM559.36 325.632l-130.304 136.96-249.088-136.96 273.92 290.048 131.072-134.4 246.528 134.4z" />
<glyph unicode="&#xe90c;" glyph-name="facebook-reviews" d="M313.344-44.544c0.012 0 0.026 0 0.041 0 14.065 0 26.805 5.671 36.058 14.851l-0.003-0.003c-9.193-9.374-21.948-15.226-36.071-15.36h-7.193zM362.24-8.448c-1.808-6.862-5.091-12.801-9.506-17.702l0.034 0.038c4.071 5.003 7.302 10.881 9.366 17.283l0.106 0.381zM985.344 564.992c-29.427 34.25-72.791 55.808-121.19 55.808-0.054 0-0.109 0-0.163 0h-203.256v152.064c-0.289 89.278-72.729 161.539-162.047 161.539-0.36 0-0.72-0.001-1.080-0.004h0.055c-0.171 0.001-0.374 0.002-0.576 0.002-54.741 0-100.149-39.957-108.651-92.296l-0.085-0.634c-17.401-103.302-47.984-195.899-90.434-281.571l2.626 5.859-18.944-38.4h-160.512c-66.875 0-121.088-54.213-121.088-121.088v0-329.728c0-66.875 54.213-121.088 121.088-121.088v0h192.256c0.012 0 0.026 0 0.041 0 14.065 0 26.805 5.671 36.058 14.851l-0.003-0.003 3.328 3.584c4.071 5.003 7.302 10.881 9.366 17.283l0.106 0.381c1.462 4.385 2.306 9.433 2.306 14.678 0 0.15-0.001 0.299-0.002 0.448v-0.023 456.96l27.904 57.856c43.986 87.809 77.774 189.682 96.1 296.831l0.924 6.529c0.723 4.138 4.289 7.244 8.581 7.244 0.405 0 0.803-0.028 1.193-0.081l-0.045 0.005c32.66 0 59.136-26.476 59.136-59.136v0-203.264c0-28.277 22.923-51.2 51.2-51.2v0h254.464c0.015 0 0.033 0 0.052 0 17.429 0 33.057-7.707 43.665-19.898l0.060-0.070c8.98-9.973 14.473-23.241 14.473-37.791 0-3.016-0.236-5.977-0.69-8.865l0.041 0.32-53.76-342.528c-4.741-29.188-29.764-51.2-59.928-51.2-0.081 0-0.163 0-0.244 0h-351.731c-28.277 0-51.2-22.923-51.2-51.2s22.923-51.2 51.2-51.2v0h351.744c0.229-0.001 0.499-0.002 0.77-0.002 81.147 0 148.384 59.551 160.395 137.334l0.115 0.908 53.248 342.528c1.139 7.176 1.789 15.451 1.789 23.878 0 39.967-14.631 76.516-38.828 104.585l0.175-0.208zM102.4 76.544v329.728c0 10.321 8.367 18.688 18.688 18.688v0h141.056v-367.104h-141.056c-10.321 0-18.688 8.367-18.688 18.688v0z" />
<glyph unicode="&#xe90d;" glyph-name="google-reviews" horiz-adv-x="1003" d="M512 521.327h483.441c4.978-25.633 7.876-55.155 7.976-85.336v-0.083c0.041-2.472 0.064-5.389 0.064-8.312 0-90.976-22.485-176.7-62.201-251.919l1.417 2.944c-40.134-75.121-99.112-135.586-170.742-176.397l-2.155-1.13c-71.446-40.366-156.884-64.151-247.877-64.151-3.308 0-6.609 0.031-9.903 0.094l0.494-0.007c-0.609-0.003-1.329-0.004-2.050-0.004-71.309 0-139.146 14.862-200.585 41.656l3.238-1.258c-63.637 26.44-118.043 62.856-163.975 107.885l0.084-0.082c-45.204 45.719-81.931 99.933-107.558 160.015l-1.274 3.361c-25.542 58.847-40.401 127.387-40.401 199.397s14.859 140.551 41.677 202.722l-1.276-3.325c26.9 63.443 63.628 117.657 108.879 163.425l-0.047-0.048c45.668 45.291 99.897 82.033 160.034 107.571l3.343 1.261c58.2 25.537 126.038 40.398 197.347 40.398 0.721 0 1.441-0.002 2.161-0.005h-0.111c2.575 0.049 5.611 0.077 8.654 0.077 129.937 0 247.94-51.099 335.008-134.299l-0.185 0.175-139.449-134.046c-50.634 49.245-119.851 79.612-196.16 79.612-2.767 0-5.524-0.040-8.272-0.119l0.404 0.009c-0.679 0.005-1.482 0.009-2.286 0.009-57.888 0-111.998-16.174-158.058-44.249l1.341 0.759c-95.41-57.522-158.235-160.595-158.235-278.341 0-0.558 0.001-1.115 0.004-1.672v0.086c-0.002-0.471-0.004-1.029-0.004-1.586 0-117.747 62.825-220.82 156.782-277.527l1.453-0.814c44.719-27.316 98.83-43.49 156.717-43.49 0.804 0 1.606 0.003 2.409 0.009l-0.123-0.001c2.12-0.047 4.618-0.074 7.122-0.074 35.546 0 69.834 5.387 102.091 15.39l-2.439-0.651c30.543 9.619 57.11 23.286 80.777 40.67l-0.761-0.533c20.712 15.883 38.662 33.833 54.041 53.862l0.504 0.683c13.43 17.224 25.003 36.895 33.846 57.994l0.631 1.696c6.285 14.746 11.462 32.014 14.698 49.956l0.225 1.501h-290.734z" />
<glyph unicode="&#xe90e;" glyph-name="horizontal-scroll" d="M1024 448c0-63.623-51.577-115.2-115.2-115.2s-115.2 51.577-115.2 115.2c0 63.623 51.577 115.2 115.2 115.2s115.2-51.577 115.2-115.2zM627.2 448c0-63.623-51.577-115.2-115.2-115.2s-115.2 51.577-115.2 115.2c0 63.623 51.577 115.2 115.2 115.2s115.2-51.577 115.2-115.2zM230.4 448c0-63.623-51.577-115.2-115.2-115.2s-115.2 51.577-115.2 115.2c0 63.623 51.577 115.2 115.2 115.2s115.2-51.577 115.2-115.2z" />
<glyph unicode="&#xe90f;" glyph-name="hover-box" horiz-adv-x="817" d="M813.824 717.312l-3.072-6.4c-0.853-2.067-1.974-3.845-3.346-5.396l0.018 0.020c-1.478-2.095-2.991-3.933-4.627-5.652l0.019 0.020-165.632-172.544c-8.842-9.276-21.277-15.058-35.063-15.104h-0.009c-13.619 0.132-25.865 5.901-34.538 15.081l-0.022 0.023c-8.923 9.426-14.41 22.184-14.41 36.224s5.487 26.798 14.433 36.248l-0.023-0.024 81.92 85.248h-460.8c-50.328-1.28-90.637-42.383-90.637-92.9 0-0.55 0.005-1.099 0.014-1.647l-0.001 0.082v-207.872c0-0.012 0-0.027 0-0.041 0-27.557-21.77-50.029-49.050-51.156l-0.102-0.003c-27.382 1.13-49.152 23.602-49.152 51.159 0 0.014 0 0.029 0 0.043v-0.002 207.872c-0.022 1.081-0.034 2.355-0.034 3.632 0 105.227 84.090 190.814 188.738 193.228l0.225 0.004h460.8l-81.92 85.248c-9.201 9.255-14.889 22.011-14.889 36.096s5.687 26.842 14.891 36.098l-0.002-0.002c8.715 9.323 21.087 15.133 34.816 15.133s26.101-5.81 34.791-15.106l0.025-0.027 162.048-169.216c1.34-0.998 2.515-2.092 3.56-3.3l0.024-0.028 5.376-6.656 2.048-3.328c0.871-1.608 1.816-3.63 2.658-5.705l0.158-0.439c2.466-6.070 3.897-13.112 3.897-20.488 0-6.602-1.146-12.935-3.251-18.813l0.122 0.39zM813.824 717.312c2.128 5.673 3.36 12.228 3.36 19.072s-1.232 13.399-3.486 19.458l0.126-0.386c2.272-5.41 3.592-11.699 3.592-18.296 0-0.318-0.003-0.635-0.009-0.952l0.001 0.047c0-0.037 0-0.081 0-0.125 0-6.776-1.316-13.244-3.707-19.163l0.123 0.344zM818.176 513.28v-207.872c0.022-1.081 0.034-2.355 0.034-3.632 0-105.227-84.090-190.814-188.738-193.228l-0.225-0.004h-460.8l81.92-85.248c9.201-9.255 14.889-22.011 14.889-36.096s-5.687-26.842-14.891-36.098l0.002 0.002c-8.715-9.323-21.087-15.133-34.816-15.133s-26.101 5.81-34.791 15.106l-0.025 0.027-166.4 172.544-5.376 6.656-2.048 3.328c-1.078 1.936-2.195 4.296-3.172 6.727l-0.156 0.441c-2.128 5.673-3.36 12.228-3.36 19.072s1.232 13.399 3.486 19.458l-0.126-0.386 3.072 6.4c0.853 2.067 1.974 3.845 3.346 5.396l-0.018-0.020c1.478 2.095 2.991 3.933 4.627 5.652l-0.019-0.020 3.584 3.328 162.048 169.216c8.748 9.255 21.109 15.015 34.816 15.015s26.068-5.76 34.795-14.992l0.021-0.023c8.923-9.426 14.41-22.184 14.41-36.224s-5.487-26.798-14.433-36.248l0.023 0.024-81.92-85.248h460.8c50.328 1.28 90.637 42.383 90.637 92.9 0 0.55-0.005 1.099-0.014 1.647l0.001-0.082v207.616c0 27.146 22.006 49.152 49.152 49.152s49.152-22.006 49.152-49.152v0zM3.584 140.8c-2.681 5.539-4.353 12.017-4.605 18.857l-0.003 0.087c-0.004 0.229-0.006 0.5-0.006 0.771 0 6.532 1.223 12.778 3.453 18.522l-0.119-0.349c-1.717-5.129-2.707-11.035-2.707-17.172 0-7.462 1.465-14.583 4.122-21.089l-0.135 0.373z" />
<glyph unicode="&#xe910;" glyph-name="icon-box" d="M1017.344 600.064l-171.008 286.72c-8.275 13.36-22.81 22.155-39.407 22.272h-588.817c-0.209 0.003-0.456 0.005-0.704 0.005-16.738 0-31.415-8.826-39.629-22.078l-0.115-0.199-41.984-70.912c-4.095-6.702-6.519-14.811-6.519-23.486 0-16.618 8.895-31.158 22.184-39.118l0.207-0.115c6.609-4.020 14.6-6.4 23.147-6.4 0.052 0 0.105 0 0.157 0h-0.008c0.004 0 0.009 0 0.014 0 16.506 0 30.973 8.727 39.040 21.818l0.114 0.198 28.928 48.64h269.056c0.19-0.003 0.414-0.005 0.638-0.005 4.161 0 8.168 0.657 11.923 1.874l-0.274-0.077v-1.792l61.44-195.072h-56.064c-1.024 0.082-2.218 0.128-3.423 0.128-25.308 0-45.824-20.516-45.824-45.824s20.516-45.824 45.824-45.824c1.205 0 2.398 0.046 3.579 0.138l-0.157-0.010h60.416c-29.44-115.2-74.24-291.584-100.608-395.008l-387.072 445.696 49.152 81.92c4.031 6.698 6.416 14.782 6.416 23.424 0 25.387-20.581 45.968-45.968 45.968-16.746 0-31.4-8.954-39.436-22.336l-0.116-0.208-65.792-110.336c-4.2-6.767-6.689-14.976-6.689-23.767 0-11.391 4.18-21.806 11.090-29.795l-0.049 0.058 464.128-533.76c2.54-3.3 5.404-6.164 8.595-8.623l0.109-0.081h1.28c0.32-0.613 0.862-1.072 1.518-1.275l0.018-0.005 2.56-1.536c0.264-0.115 0.572-0.181 0.896-0.181s0.632 0.067 0.911 0.187l-0.015-0.006c1.204-0.999 2.675-1.718 4.29-2.038l0.062-0.010c0.346-0.066 0.745-0.105 1.152-0.105s0.806 0.038 1.192 0.111l-0.040-0.006h8.704c0.846-0.115 1.823-0.181 2.816-0.181s1.97 0.066 2.928 0.193l-0.112-0.012h7.936c2.184 0.261 4.173 0.802 6.032 1.59l-0.144-0.054h7.168l2.56 1.536c0.627 0.293 1.145 0.729 1.528 1.268l0.008 0.012c3.857 2.668 7.152 5.801 9.909 9.37l0.075 0.102 465.92 533.504c6.861 7.931 11.041 18.346 11.041 29.737 0 8.791-2.489 17-6.801 23.962l0.112-0.195zM604.16 216.064c18.432 73.216 44.288 174.592 80.128 315.392h193.536zM680.96 622.848l-60.416 194.56h160.512l116.48-195.072zM524.8 817.408h-12.8c0.19-0.003 0.414-0.005 0.638-0.005 4.161 0 8.168 0.657 11.923 1.874l-0.274-0.077zM414.208 530.944h-25.6c-1.024-0.082-2.218-0.128-3.423-0.128-25.308 0-45.824 20.516-45.824 45.824s20.516 45.824 45.824 45.824c1.205 0 2.398-0.046 3.579-0.138l-0.157 0.010h25.6c1.024 0.082 2.218 0.128 3.423 0.128 25.308 0 45.824-20.516 45.824-45.824s-20.516-45.824-45.824-45.824c-1.205 0-2.398 0.046-3.579 0.138l0.157-0.010z" />
<glyph unicode="&#xe911;" glyph-name="ihover" horiz-adv-x="847" d="M841.472 629.504c-8.619 16.836-25.849 28.16-45.723 28.16-0.035 0-0.071 0-0.106 0h-179.194l82.432 234.24c1.656 4.818 2.612 10.37 2.612 16.145 0 11.464-3.768 22.048-10.133 30.582l0.096-0.135c-9.398 13.083-24.57 21.504-41.708 21.504-0.007 0-0.014 0-0.021 0h-387.839c-0.034 0-0.074 0-0.113 0-7.29 0-14.205-1.604-20.411-4.477l0.301 0.125c-1.269-0.32-2.381-0.85-3.356-1.556l0.028 0.020c-3.416-1.68-6.361-3.642-9.013-5.933l0.053 0.045c-1.34-0.998-2.515-2.092-3.56-3.3l-0.024-0.028c-5.82-5.654-10.239-12.719-12.707-20.644l-0.093-0.348-209.408-534.272c-2.173-5.467-3.433-11.803-3.433-18.432 0-28.224 22.837-51.114 51.041-51.2h307.208l-69.12-320.512c-0.057-0.231-0.090-0.496-0.090-0.768s0.033-0.537 0.095-0.791l-0.005 0.023c-0.18-1.613-0.283-3.482-0.283-5.376s0.103-3.763 0.303-5.604l-0.020 0.228c-0.126-1.304-0.198-2.82-0.198-4.352s0.072-3.048 0.213-4.543l-0.015 0.191c0.462-3.187 1.177-6.036 2.146-8.765l-0.098 0.317c3.683-9.814 9.867-17.977 17.787-23.967l0.133-0.097c2.301-1.734 4.901-3.352 7.642-4.73l0.294-0.134 6.656-2.56 6.4-1.792c1.38-0.121 2.986-0.19 4.608-0.19s3.228 0.069 4.815 0.204l-0.207-0.014c2.126-0.433 4.596-0.71 7.12-0.767l0.048-0.001h8.192l5.376 2.304c1.574 0.55 2.934 1.333 4.117 2.321l-0.021-0.017c5.626 3.529 10.376 7.872 14.242 12.928l0.094 0.128 2.304 3.328 455.936 619.008c6.289 8.407 10.070 19.008 10.070 30.493 0 8.391-2.019 16.311-5.597 23.3l0.134-0.289zM438.272 208.128l32.256 152.064c0.728 3.236 1.144 6.951 1.144 10.765 0 28.277-22.923 51.2-51.2 51.2-0.402 0-0.804-0.005-1.204-0.014l0.059 0.001h-293.12l170.496 435.456h280.32l-81.152-230.4-1.28-3.328c-0.77-1.911-1.394-4.15-1.768-6.473l-0.024-0.183v-5.12c-0.064-0.767-0.101-1.659-0.101-2.56s0.037-1.793 0.109-2.676l-0.008 0.116s0-2.56 0-3.584c-0.119-0.961-0.188-2.072-0.188-3.2s0.068-2.239 0.201-3.331l-0.013 0.131c0.549-3.46 1.441-6.56 2.661-9.489l-0.101 0.273v-1.536c0.555-1.388 1.156-2.567 1.849-3.683l-0.057 0.099c0.646-1.671 1.51-3.111 2.578-4.374l-0.018 0.022 2.304-3.072c2.179-2.902 4.622-5.426 7.343-7.617l0.081-0.063c3.711-2.876 7.916-5.441 12.396-7.512l0.404-0.168 4.608-1.792c1.937-0.729 4.191-1.27 6.531-1.525l0.125-0.011c1.266-0.121 2.737-0.19 4.224-0.19s2.958 0.069 4.41 0.204l-0.186-0.014h150.784zM288.768-21.504c-0.119 0.808-0.187 1.74-0.187 2.688s0.068 1.88 0.199 2.792l-0.012-0.104v3.328c-0.126-1.304-0.198-2.82-0.198-4.352s0.072-3.048 0.213-4.543l-0.015 0.191zM528.128 557.568h-4.608z" />
<glyph unicode="&#xe912;" glyph-name="image-accordion" d="M972.8 883.2h-921.6c-28.277 0-51.2-22.923-51.2-51.2v0-776.192c0-28.277 22.923-51.2 51.2-51.2v0h921.6c28.277 0 51.2 22.923 51.2 51.2v0 776.192c0 28.277-22.923 51.2-51.2 51.2v0zM102.4 780.8h204.8v-673.792h-204.8zM409.6 780.8h204.8v-673.792h-204.8zM921.6 107.008h-204.8v673.792h204.8z" />
<glyph unicode="&#xe913;" glyph-name="image-comparison" d="M972.8 883.2h-921.6c-28.277 0-51.2-22.923-51.2-51.2v0-776.192c0-28.277 22.923-51.2 51.2-51.2v0h921.6c28.277 0 51.2 22.923 51.2 51.2v0 776.192c0 28.277-22.923 51.2-51.2 51.2v0zM102.4 780.8h358.4v-234.496c-37.365-19.557-62.424-58.052-62.424-102.4s25.060-82.843 61.791-102.098l0.633-0.302v-233.728h-358.4zM921.6 107.008h-358.4v234.496c37.365 19.557 62.424 58.052 62.424 102.4s-25.060 82.843-61.791 102.098l-0.633 0.302v234.496h358.4z" />
<glyph unicode="&#xe914;" glyph-name="image-hotspots" d="M1013.248 300.8l-371.456 611.072c-13.171 21.338-36.424 35.345-62.949 35.345-31.533 0-58.442-19.796-68.979-47.638l-0.168-0.507-81.408-220.16c-2.232-5.535-3.527-11.953-3.527-18.674 0-28.277 22.923-51.2 51.2-51.2 22.218 0 41.13 14.152 48.215 33.933l0.112 0.357 60.928 164.608 310.784-510.72-281.6 32.512-142.080 230.4c-6.846 11.049-17.646 19.094-30.382 22.202l-0.338 0.070h-6.4c-2.001 0.367-4.304 0.577-6.656 0.577s-4.655-0.21-6.891-0.612l0.235 0.035c-7.397-0.938-14.069-3.387-19.92-7.033l0.208 0.121-332.8-202.752c-41.525-25.053-68.866-69.925-68.866-121.183 0-26.712 7.425-51.689 20.323-72.981l-0.354 0.629 59.904-98.816c25.23-40.968 69.837-67.869 120.728-67.869 27.103 0 52.424 7.63 73.932 20.86l-0.613-0.351 200.96 121.856 40.96-67.584c2.932-4.782 4.669-10.572 4.669-16.768 0-17.919-14.526-32.445-32.445-32.445-11.723 0-21.994 6.218-27.695 15.535l-0.081 0.142-12.544 20.736c-7.063 7.884-17.275 12.822-28.641 12.822-21.208 0-38.4-17.192-38.4-38.4 0-5.174 1.023-10.109 2.878-14.613l-0.093 0.255 12.544-20.48c19.597-30.953 53.657-51.205 92.447-51.205 0.349 0 0.698 0.002 1.046 0.005h-0.053c60.099 0.173 108.751 48.933 108.751 109.056 0 20.914-5.887 40.452-16.094 57.049l0.271-0.473-40.96 67.584 55.808 33.792 345.088-39.68c2.017-0.196 4.359-0.308 6.728-0.308 40.719 0 73.728 33.009 73.728 73.728 0 13.698-3.736 26.524-10.244 37.513l0.187-0.342zM221.184 121.6c-5.76-3.595-12.754-5.726-20.247-5.726-13.905 0-26.095 7.342-32.906 18.36l-0.096 0.166-59.904 97.792c-3.493 5.721-5.562 12.643-5.562 20.047 0 13.984 7.377 26.245 18.451 33.105l0.167 0.096 291.584 176.896 102.4-163.84z" />
<glyph unicode="&#xe915;" glyph-name="image-layers" d="M897.28 960h-512c-70.692 0-128-57.308-128-128v0-124.16h-129.28c-70.14-0.724-126.72-57.751-126.72-127.994 0-0.002 0-0.005 0-0.007v0-515.84c0-70.692 57.308-128 128-128v0h510.72c70.14 0.724 126.72 57.751 126.72 127.994 0 0.002 0 0.005 0 0.007v0 124.16h131.84c70.692 0 128 57.308 128 128v0 515.84c0 0.002 0 0.004 0 0.006 0 70.692-57.308 128-128 128-0.45 0-0.899-0.002-1.348-0.007l0.068 0.001zM664.064 64c0-14.138-11.462-25.6-25.6-25.6v0h-510.464c-14.138 0-25.6 11.462-25.6 25.6v0 516.096c0 14.138 11.462 25.6 25.6 25.6v0h512c14.138 0 25.6-11.462 25.6-25.6v0zM921.6 315.904c0-14.138-11.462-25.6-25.6-25.6v0h-130.56v289.792c0 0.002 0 0.004 0 0.006 0 70.242-56.58 127.27-126.651 127.993l-0.069 0.001h-278.784v123.904c0 14.138 11.462 25.6 25.6 25.6v0h512c14.138 0 25.6-11.462 25.6-25.6v0z" />
<glyph unicode="&#xe916;" glyph-name="instagram-feed" d="M1021.185 659.019c-0.751 44.832-9.132 87.479-23.895 127.015l0.861-2.63c-13.62 35.496-33.821 65.731-59.321 90.547l-0.056 0.054c-24.912 25.418-55.137 45.527-88.888 58.541l-1.713 0.581c-37.011 14.227-79.807 22.877-124.502 23.796l-0.394 0.006c-54.77 3.071-72.174 3.071-211.403 3.071s-156.121 0-210.891-2.815c-44.715-0.687-87.285-8.98-126.762-23.634l2.633 0.856c-35.667-13.843-66.001-34.392-90.768-60.307l-0.089-0.094c-25.341-24.913-45.37-55.142-58.289-88.889l-0.576-1.712c-14.394-36.776-23.062-79.333-23.798-123.819l-0.004-0.31c-3.327-54.77-3.327-72.174-3.327-211.147s0-156.633 3.071-211.147c0.852-44.813 9.509-87.354 24.663-126.668l-0.86 2.539c13.561-35.564 33.676-65.878 59.083-90.82l0.038-0.037c24.854-25.809 55.081-46.253 88.901-59.556l1.7-0.589c36.769-14.089 79.281-22.725 123.667-23.793l0.462-0.009c54.77-1.792 72.174-1.792 211.147-1.792s156.377 0 211.147 2.815c44.715 0.687 87.285 8.98 126.762 23.634l-2.633-0.856c69.708 27.177 123.825 81.295 150.389 149.222l0.613 1.781c14.268 36.775 22.923 79.313 23.796 123.758l0.006 0.371c1.792 54.514 1.792 71.918 1.792 211.147s0 156.377-2.559 210.891zM929.048 241.076c-0.489-34.304-6.923-66.959-18.313-97.185l0.653 1.976c-17.676-44.72-52.476-79.436-96.104-96.601l-1.152-0.399c-28.172-10.979-60.775-17.438-94.86-17.659h-0.093c-54.002-2.559-70.382-3.071-206.796-3.071s-153.562 0-207.052 3.071c-34.177 0.222-66.781 6.681-96.819 18.294l1.867-0.635c-23.095 8.559-42.768 21.564-58.829 38.097l-0.036 0.038c-16.478 16.157-29.466 35.81-37.769 57.763l-0.366 1.102c-10.747 28.17-17.182 60.739-17.657 94.748l-0.002 0.205c-2.303 53.747-2.815 70.126-2.815 207.308s0 153.562 2.815 206.796c0.444 34.209 6.883 66.781 18.308 96.9l-0.648-1.947c8.59 23.126 21.686 42.807 38.339 58.816l0.051 0.049c16.098 16.57 35.77 29.575 57.781 37.78l1.084 0.354c28.172 10.979 60.775 17.438 94.86 17.659h0.093c54.002 2.559 70.382 3.071 206.796 3.071s153.562 0 206.796-3.071c34.263-0.2 66.957-6.662 97.079-18.295l-1.871 0.636c23.005-8.567 42.593-21.571 58.567-38.091l0.042-0.044c16.646-16.096 29.731-35.765 38.031-57.779l0.359-1.086c10.747-28.17 17.182-60.739 17.657-94.748l0.002-0.205c2.303-54.002 2.815-70.126 2.815-206.796s-0.512-153.562-2.815-207.052zM511.872 710.974c-145.197-0.146-262.846-117.885-262.846-263.102 0-145.307 117.795-263.102 263.102-263.102s263.102 117.795 263.102 263.102c0 0.090 0 0.18 0 0.27v-0.014c0 0 0 0 0 0 0 145.166-117.68 262.846-262.846 262.846-0.18 0-0.36 0-0.54-0.001h0.028zM511.872 277.419c-94.28 0-170.709 76.429-170.709 170.709s76.429 170.709 170.709 170.709c94.28 0 170.709-76.429 170.709-170.709v0c0-94.28-76.429-170.709-170.709-170.709v0zM846.892 721.468c0-33.924-27.501-61.425-61.425-61.425s-61.425 27.501-61.425 61.425c0 33.924 27.501 61.425 61.425 61.425v0c0.076 0 0.166 0.001 0.256 0.001 33.783 0 61.169-27.386 61.169-61.169 0-0.090 0-0.18-0.001-0.27v0.014z" />
<glyph unicode="&#xe917;" glyph-name="ken-burns" d="M896-64h-768c-70.692 0-128 57.308-128 128v0 768c0 70.692 57.308 128 128 128v0h278.528c28.277 0 51.2-22.923 51.2-51.2s-22.923-51.2-51.2-51.2v0h-278.528c-14.138 0-25.6-11.462-25.6-25.6v0-768c0-14.138 11.462-25.6 25.6-25.6v0h768c14.138 0 25.6 11.462 25.6 25.6v0 228.352c0 28.277 22.923 51.2 51.2 51.2s51.2-22.923 51.2-51.2v0-228.352c0-70.692-57.308-128-128-128v0zM1024 908.8v-369.664c0-28.277-22.923-51.2-51.2-51.2s-51.2 22.923-51.2 51.2v0 246.272l-373.504-373.504c-8.895-7.652-20.555-12.311-33.303-12.311-28.277 0-51.2 22.923-51.2 51.2 0 12.749 4.659 24.409 12.368 33.371l-0.057-0.067 373.504 373.504h-212.48c-28.277 0-51.2 22.923-51.2 51.2s22.923 51.2 51.2 51.2v0h335.872c1.46 0.187 3.15 0.294 4.864 0.294s3.404-0.107 5.062-0.314l-0.198 0.020c3.44-0.752 6.434-1.721 9.294-2.943l-0.334 0.127 8.192-4.352s0 0 0 0c2.731-2.113 5.151-4.208 7.451-6.426l-0.027 0.026c2.192-2.273 4.287-4.693 6.249-7.222l0.151-0.202s0 0 0 0c1.384-2.23 2.835-4.916 4.138-7.685l0.214-0.507s0 0 0 0c2.406-3.393 4.477-7.281 6.028-11.423l0.116-0.353c0.207-1.538 0.325-3.315 0.325-5.12s-0.118-3.582-0.347-5.325l0.022 0.205z" />
<glyph unicode="&#xe918;" glyph-name="lottie-section-background" d="M972.8-64h-921.6c-28.277 0-51.2 22.923-51.2 51.2v0 921.6c0 28.277 22.923 51.2 51.2 51.2v0h921.6c28.277 0 51.2-22.923 51.2-51.2v0-921.6c0-28.277-22.923-51.2-51.2-51.2v0zM102.4 857.6v-819.2h819.2v819.2zM782.080 648.96c-1.865-26.75-24.022-47.744-51.083-47.744-2.207 0-4.381 0.14-6.514 0.41l0.253-0.026h-1.536c-20.277-0.815-38.332-9.698-51.158-23.506l-0.042-0.046c-39.624-37.719-72.674-81.886-97.557-130.899l-1.259-2.733c-5.632-10.24-11.264-20.224-16.64-30.464-14.848-25.6-29.696-53.504-45.568-79.872-30.788-53.58-70.537-98.474-117.675-134.109l-1.109-0.803c-25.659-18.893-57.89-30.236-92.771-30.236-1.045 0-2.088 0.010-3.129 0.030l0.156-0.002c-17.084 0.379-32.471 7.342-43.786 18.442l0.010-0.010c-7.369 8.172-11.878 19.049-11.878 30.978 0 1.080 0.037 2.152 0.11 3.213l-0.008-0.143c1.795 26.812 23.983 47.88 51.092 47.88 2.567 0 5.089-0.189 7.555-0.554l-0.279 0.034h1.536c20.277 0.815 38.332 9.698 51.158 23.506l0.042 0.046c39.624 37.719 72.674 81.886 97.557 130.899l1.259 2.733c5.632 10.24 11.264 20.224 16.64 30.464 14.848 25.6 29.696 53.504 45.568 79.872 30.788 53.58 70.537 98.474 117.675 134.109l1.109 0.803c25.659 18.893 57.89 30.236 92.771 30.236 1.045 0 2.088-0.010 3.129-0.030l-0.156 0.002c17.084-0.379 32.471-7.342 43.786-18.442l-0.010 0.010c6.802-8.012 10.938-18.473 10.938-29.9 0-1.46-0.068-2.905-0.2-4.331l0.014 0.183z" />
<glyph unicode="&#xe919;" glyph-name="magic-section" d="M1008.896 872.704l-249.856-250.112h176.64c28.277 0 51.2-22.923 51.2-51.2s-22.923-51.2-51.2-51.2v0h-300.288c-1.46-0.187-3.15-0.294-4.864-0.294s-3.404 0.107-5.062 0.314l0.198-0.020c-2.679 0.362-5.098 0.99-7.393 1.867l0.225-0.075-6.656 2.816h-1.792c-2.050 0.972-3.815 2.082-5.431 3.371l0.055-0.043-5.632 4.864c-1.715 1.716-3.31 3.554-4.769 5.499l-0.095 0.133c-1.246 1.561-2.356 3.326-3.257 5.211l-0.071 0.165c-0.040 0.269-0.063 0.58-0.063 0.896s0.023 0.627 0.067 0.931l-0.004-0.035c-0.96 1.827-1.911 4.026-2.707 6.297l-0.109 0.359c-0.602 1.671-1.219 3.813-1.716 6l-0.076 0.4c-0.181 1.498-0.284 3.233-0.284 4.992s0.103 3.494 0.304 5.199l-0.020-0.207v302.848c0 28.277 22.923 51.2 51.2 51.2s51.2-22.923 51.2-51.2v0-176.64l248.064 249.856c9.255 9.201 22.011 14.889 36.096 14.889s26.842-5.687 36.098-14.891l-0.002 0.002c9.201-9.255 14.889-22.011 14.889-36.096s-5.687-26.842-14.891-36.098l0.002 0.002zM439.808 324.608v-300.288c0-28.277-22.923-51.2-51.2-51.2s-51.2 22.923-51.2 51.2v0 176.64l-250.112-249.856c-9.255-9.201-22.011-14.889-36.096-14.889s-26.842 5.687-36.098 14.891l0.002-0.002c-9.201 9.255-14.889 22.011-14.889 36.096s5.687 26.842 14.891 36.098l-0.002-0.002 249.856 250.112h-176.64c-28.277 0-51.2 22.923-51.2 51.2s22.923 51.2 51.2 51.2v0h300.288c1.498 0.181 3.233 0.284 4.992 0.284s3.494-0.103 5.199-0.304l-0.207 0.020 6.4-1.792 6.656-2.816h1.792c2.050-0.972 3.815-2.082 5.431-3.371l-0.055 0.043 5.632-4.864c1.715-1.716 3.31-3.554 4.769-5.499l0.095-0.133c1.246-1.561 2.356-3.326 3.257-5.211l0.071-0.165c0.040-0.269 0.063-0.58 0.063-0.896s-0.023-0.627-0.067-0.931l0.004 0.035c0.96-1.827 1.911-4.026 2.707-6.297l0.109-0.359c0.602-1.671 1.219-3.813 1.716-6l0.076-0.4c1.383-3.697 2.3-7.973 2.555-12.427l0.005-0.117zM439.808 871.68v-300.288c0.181-1.498 0.284-3.233 0.284-4.992s-0.103-3.494-0.304-5.199l0.020 0.207c-0.573-2.587-1.19-4.729-1.919-6.818l0.127 0.418c-0.905-2.63-1.856-4.829-2.95-6.941l0.134 0.285c0.040-0.269 0.063-0.58 0.063-0.896s-0.023-0.627-0.067-0.931l0.004 0.035c-0.972-2.050-2.082-3.815-3.371-5.431l0.043 0.055c-1.554-2.078-3.149-3.916-4.864-5.632v0l-5.632-4.864c-1.561-1.246-3.326-2.356-5.211-3.257l-0.165-0.071h-1.792l-6.656-2.816c-2.070-0.802-4.489-1.43-6.998-1.773l-0.17-0.019c-1.46-0.187-3.15-0.294-4.864-0.294s-3.404 0.107-5.062 0.314l0.198-0.020h-302.336c-28.277 0-51.2 22.923-51.2 51.2s22.923 51.2 51.2 51.2v0h176.64l-249.856 247.552c-9.201 9.255-14.889 22.011-14.889 36.096s5.687 26.842 14.891 36.098l-0.002-0.002c9.255 9.201 22.011 14.889 36.096 14.889s26.842-5.687 36.098-14.891l-0.002 0.002 250.112-249.856v176.64c0 28.277 22.923 51.2 51.2 51.2s51.2-22.923 51.2-51.2v0zM1008.896-48.896c-9.255-9.201-22.011-14.889-36.096-14.889s-26.842 5.687-36.098 14.891l0.002-0.002-250.112 249.856v-176.64c0-28.277-22.923-51.2-51.2-51.2s-51.2 22.923-51.2 51.2v0 300.288c-0.181 1.498-0.284 3.233-0.284 4.992s0.103 3.494 0.304 5.199l-0.020-0.207c0.573 2.587 1.19 4.729 1.919 6.818l-0.127-0.418c0.874 2.817 1.83 5.191 2.95 7.469l-0.134-0.301c-0.040 0.269-0.063 0.58-0.063 0.896s0.023 0.627 0.067 0.931l-0.004-0.035c0.972 2.050 2.082 3.815 3.371 5.431l-0.043-0.055c1.554 2.078 3.149 3.916 4.864 5.632v0l5.632 4.864c1.561 1.246 3.326 2.356 5.211 3.257l0.165 0.071h1.792l6.656 2.816 6.4 1.792c1.498 0.181 3.233 0.284 4.992 0.284s3.494-0.103 5.199-0.304l-0.207 0.020h302.848c28.277 0 51.2-22.923 51.2-51.2s-22.923-51.2-51.2-51.2v0h-176.64l249.856-250.112c8.608-9.139 13.899-21.488 13.899-35.072s-5.29-25.933-13.923-35.098l0.024 0.026z" />
<glyph unicode="&#xe91a;" glyph-name="multi-scroll" d="M432.64 610.304c-9.267-9.277-22.075-15.016-36.224-15.016s-26.957 5.739-36.224 15.016v0l-85.248 85.248v-625.408c0-28.277-22.923-51.2-51.2-51.2s-51.2 22.923-51.2 51.2v0 625.408l-85.248-85.248c-9.041-8.188-21.091-13.199-34.312-13.199-28.277 0-51.2 22.923-51.2 51.2 0 13.285 5.059 25.388 13.357 34.487l-0.036-0.040 169.216 168.96c0.988 0.925 2.076 1.769 3.238 2.507l0.090 0.053c2.027 1.945 4.197 3.791 6.475 5.502l0.181 0.13 3.328 2.048c2.081 1.748 4.436 3.284 6.965 4.519l0.203 0.089c5.657 2.248 12.212 3.551 19.072 3.551s13.415-1.303 19.431-3.676l-0.359 0.125 6.4-3.328c2.067-0.853 3.845-1.974 5.396-3.346l-0.020 0.018 5.632-4.864 3.328-3.584 169.216-168.96c9.125-9.241 14.761-21.946 14.761-35.967 0-14.149-5.739-26.957-15.017-36.224v0zM223.744 870.4c0.037 0 0.081 0 0.125 0 6.776 0 13.244-1.316 19.163-3.707l-0.344 0.123c-5.528 2.137-11.924 3.375-18.61 3.375-6.937 0-13.563-1.333-19.636-3.757l0.357 0.126c5.59 2.428 12.101 3.84 18.942 3.84 0.001 0 0.001 0 0.002 0v0zM1008.896 206.592l-172.544-171.52c-1.996-2.046-4.172-3.897-6.51-5.535l-0.146-0.097-3.328-2.048c-1.759-1.132-3.783-2.165-5.91-2.992l-0.234-0.080c-2.526-1.095-5.52-2.064-8.62-2.753l-0.34-0.063c-2.924-0.649-6.283-1.021-9.728-1.021s-6.804 0.372-10.038 1.078l0.31-0.057c-3.574 0.708-6.664 1.592-9.645 2.699l0.429-0.139-6.4 3.328c-2.067 0.853-3.845 1.974-5.396 3.346l0.020-0.018-6.912 4.352-172.544 171.52c-9.271 9.271-15.004 22.078-15.004 36.224 0 28.293 22.936 51.228 51.228 51.228 14.146 0 26.953-5.734 36.224-15.004l85.248-85.248v625.408c0 28.277 22.923 51.2 51.2 51.2s51.2-22.923 51.2-51.2v0-625.408l85.248 85.248c9.4 10.31 22.887 16.753 37.88 16.753 28.277 0 51.2-22.923 51.2-51.2 0-15.056-6.499-28.594-16.844-37.963l-0.044-0.039z" />
<glyph unicode="&#xe91b;" glyph-name="parallax" d="M1024 710.4v-480c0-84.831-68.769-153.6-153.6-153.6v0h-503.552c-28.277 0-51.2 22.923-51.2 51.2s22.923 51.2 51.2 51.2v0h503.552c28.277 0 51.2 22.923 51.2 51.2v0 374.272l-206.848-162.048c-8.608-6.795-19.615-10.899-31.58-10.899-3.408 0-6.739 0.333-9.961 0.968l0.325-0.053c-15.112 3.113-27.562 12.54-34.683 25.339l-0.133 0.261-126.72 219.904-128-220.672c-7.202-13.006-19.551-22.416-34.225-25.54l-0.335-0.060c-1.457-0.127-3.152-0.199-4.864-0.199s-3.407 0.072-5.083 0.214l0.219-0.015c-11.945 0.056-22.914 4.193-31.593 11.089l0.105-0.081-205.824 161.792v-374.272c0-28.277 22.923-51.2 51.2-51.2v0c28.277 0 51.2-22.923 51.2-51.2s-22.923-51.2-51.2-51.2v0c-84.831 0-153.6 68.769-153.6 153.6v0 480c-0.111 1.151-0.174 2.488-0.174 3.84s0.063 2.689 0.187 4.009l-0.013-0.169c0.351 3.037 1.072 5.807 2.125 8.407l-0.077-0.215c1.013 2.987 2.138 5.524 3.458 7.939l-0.13-0.259c1.64 2.754 3.245 5.094 4.982 7.326l-0.118-0.158c2.454 3.213 5.235 5.994 8.342 8.37l0.106 0.078 4.608 3.328 5.12 2.816c6.604 3.549 14.423 5.707 22.728 5.887l0.056 0.001c1.228 0.126 2.654 0.198 4.096 0.198s2.868-0.072 4.273-0.212l-0.177 0.014c3.037-0.351 5.807-1.072 8.407-2.125l-0.215 0.077c2.987-1.013 5.524-2.138 7.939-3.458l-0.259 0.13h1.536l7.168-4.864 241.92-189.44 141.824 246.784c9.029 15.361 25.474 25.509 44.288 25.509s35.259-10.148 44.157-25.269l0.131-0.24 141.824-246.784 241.92 189.44h1.28l7.168 4.864c2.156 1.19 4.693 2.315 7.331 3.223l0.349 0.105c2.385 0.976 5.155 1.697 8.043 2.034l0.149 0.014c1.267 0.134 2.736 0.21 4.224 0.21s2.957-0.076 4.406-0.226l-0.182 0.015c8.018-0.049 15.585-1.934 22.316-5.254l-0.3 0.134 5.12-2.816 4.608-3.328c3.213-2.454 5.994-5.235 8.37-8.342l0.078-0.106c1.619-2.074 3.224-4.414 4.686-6.849l0.178-0.319c1.19-2.156 2.315-4.693 3.223-7.331l0.105-0.349c1.292-2.596 2.274-5.607 2.791-8.775l0.025-0.185c0.111-1.151 0.174-2.488 0.174-3.84s-0.063-2.689-0.187-4.009l0.013 0.169z" />
<glyph unicode="&#xe91c;" glyph-name="particles" horiz-adv-x="1010" d="M878.080 237.056v4.096l-94.208 435.2c0.069 0.423 0.108 0.911 0.108 1.408s-0.039 0.985-0.115 1.46l0.007-0.052c36.629 29.186 59.899 73.792 59.899 123.833 0 87.234-70.718 157.952-157.952 157.952s-157.952-70.718-157.952-157.952c0-0.425 0.002-0.849 0.005-1.274v0.065c0-0.101 0-0.221 0-0.34 0-15.864 2.433-31.161 6.948-45.535l-0.291 1.075-281.088-249.088c-23.858 14.002-52.545 22.272-83.163 22.272-0.013 0-0.026 0-0.039 0h0.002c-94.021 0-170.24-76.219-170.24-170.24s76.219-170.24 170.24-170.24v0c0.207-0.001 0.453-0.001 0.699-0.001 37.1 0 71.373 12.104 99.085 32.579l-0.455-0.321 440.32-162.56c13.692-70.478 74.921-122.958 148.406-122.958 83.417 0 151.040 67.623 151.040 151.040 0 76.713-57.19 140.068-131.26 149.756l-0.762 0.081zM684.288 857.6c0.076 0 0.166 0.001 0.256 0.001 31.529 0 57.088-25.559 57.088-57.088s-25.559-57.088-57.088-57.088c-31.529 0-57.088 25.559-57.088 57.087v0c0 0.076-0.001 0.166-0.001 0.256 0 31.387 25.445 56.832 56.832 56.832 0 0 0 0 0.001 0v0zM100.864 359.936c0.18 38.179 31.171 69.060 69.375 69.060 18.952 0 36.129-7.599 48.65-19.917l-0.009 0.009 3.84-4.096c10.32-12.049 16.61-27.815 16.64-45.050v-0.006c-0.064-16.947-6.041-32.486-15.974-44.673l0.102 0.129-3.84-4.352c-12.538-12.459-29.818-20.16-48.896-20.16-38.293 0-69.34 31.024-69.376 69.309v0.003zM727.296 160.768l-395.52 145.92c5.501 15.884 8.686 34.191 8.704 53.24v0.008c-0.092 27.138-6.51 52.755-17.854 75.484l0.446-0.988 267.776 239.616c25.385-18.72 57.285-29.961 91.809-29.961 0.573 0 1.146 0.003 1.718 0.009l-0.087-0.001h3.328l92.16-424.704c-0.070-0.614-0.11-1.327-0.11-2.048s0.040-1.434 0.117-2.134l-0.008 0.086c-21.923-13.591-39.658-31.982-52.092-53.789l-0.388-0.739zM859.136 37.12c-28.27 0.009-51.184 22.929-51.184 51.2 0 28.277 22.923 51.2 51.2 51.2s51.2-22.923 51.2-51.2c0-0.45-0.006-0.899-0.017-1.346l0.001 0.066c-0.715-27.721-23.357-49.92-51.184-49.92-0.006 0-0.011 0-0.017 0h0.001z" />
<glyph unicode="&#xe91d;" glyph-name="preview-window" d="M718.336-64h-564.736c-84.831 0-153.6 68.769-153.6 153.6v0 564.736c0 84.831 68.769 153.6 153.6 153.6v0h355.84c28.277 0 51.2-22.923 51.2-51.2s-22.923-51.2-51.2-51.2v0h-355.84c-28.277 0-51.2-22.923-51.2-51.2v0-564.736c0-28.277 22.923-51.2 51.2-51.2v0h564.736c28.277 0 51.2 22.923 51.2 51.2v0 354.304c0 28.277 22.923 51.2 51.2 51.2s51.2-22.923 51.2-51.2v0-354.304c0-84.831-68.769-153.6-153.6-153.6v0zM820.736 553.472c-0.229-0.001-0.499-0.001-0.769-0.001-111.566 0-202.059 90.224-202.494 201.688v3.882c0 112.26 91.004 203.264 203.264 203.264s203.264-91.004 203.264-203.264v0-3.84c-0.436-111.505-90.929-201.729-202.495-201.729-0.271 0-0.541 0.001-0.811 0.002h0.042zM820.736 857.6c-0.307 0.003-0.669 0.005-1.032 0.005-54.692 0-99.113-43.976-99.831-98.498l-0.001-0.068v-3.84c0-55.706 45.158-100.864 100.864-100.864s100.864 45.158 100.864 100.864v0 3.84c-0.719 54.589-45.14 98.565-99.832 98.565-0.363 0-0.725-0.002-1.087-0.006h0.055z" />
<glyph unicode="&#xe91e;" glyph-name="tables" d="M966.144 960h-908.288c-31.953 0-57.856-25.903-57.856-57.856v0-908.288c0-31.953 25.903-57.856 57.856-57.856v0h908.288c31.953 0 57.856 25.903 57.856 57.856v0 908.288c0 31.953-25.903 57.856-57.856 57.856v0zM418.56 844.288h186.88v-187.136h-186.88zM418.56 541.44h186.88v-186.88h-186.88zM302.848 51.712h-187.136v187.136h187.136zM302.848 354.56h-187.136v186.88h187.136zM302.848 657.152h-187.136v187.136h187.136zM605.44 51.712h-186.88v187.136h186.88zM908.288 51.712h-187.136v187.136h187.136zM908.288 354.56h-187.136v186.88h187.136zM908.288 657.152h-187.136v187.136h187.136z" />
<glyph unicode="&#xe91f;" glyph-name="tabs" d="M972.8 532.48h-921.6c-28.277 0-51.2 22.923-51.2 51.2v0 325.12c0 28.277 22.923 51.2 51.2 51.2v0h921.6c28.277 0 51.2-22.923 51.2-51.2v0-325.12c0-28.277-22.923-51.2-51.2-51.2v0zM102.4 634.88h819.2v222.72h-819.2zM972.8-64h-921.6c-28.277 0-51.2 22.923-51.2 51.2v0 325.12c0 28.277 22.923 51.2 51.2 51.2v0h921.6c28.277 0 51.2-22.923 51.2-51.2v0-325.12c0-28.277-22.923-51.2-51.2-51.2v0zM102.4 38.4h819.2v222.72h-819.2z" />
<glyph unicode="&#xe920;" glyph-name="trustpilot" d="M195.584-39.424l119.808 374.528-315.392 227.328 389.888 2.816 122.112 369.152 119.296-369.152 392.704-2.816-512-369.152-316.416-232.704zM832-36.864l-320 230.144 221.696 61.44 98.304-291.584z" />
<glyph unicode="&#xe921;" glyph-name="twitter-feed" d="M322.048 38.4c386.304 0 597.76 320 597.76 597.76 0 8.96 0 17.92 0 27.136 41.023 30.13 75.596 66.169 103.222 107.268l0.97 1.532c-35.109-16.142-75.839-27.862-118.577-33.081l-1.999-0.199c43.321 26.458 75.94 66.791 91.98 114.721l0.436 1.503c-38.467-23.22-83.226-40.975-130.898-50.732l-2.734-0.468c-38.48 41.26-93.16 66.981-153.847 66.981-116.077 0-210.176-94.099-210.176-210.176 0-17.133 2.050-33.786 5.918-49.729l-0.295 1.437c-174.874 9.249-328.64 92.418-431.795 218.582l-0.845 1.066c-18.199-30.472-28.959-67.211-28.959-106.463 0-72.791 37.004-136.939 93.226-174.659l0.757-0.478c-34.967 0.923-67.551 10.298-96.041 26.144l1.065-0.544v-2.56c0.591-100.815 72.070-184.766 167.084-204.562l1.364-0.238c-15.949-4.402-34.263-6.932-53.168-6.932-1.018 0-2.034 0.007-3.049 0.022l0.153-0.002c-14.1 0.109-27.804 1.501-41.090 4.067l1.41-0.227c27.752-84.096 104.81-144.061 196.135-145.917l0.217-0.003c-70.634-55.776-160.879-89.566-259.006-89.856h-0.066c-0.057 0-0.125 0-0.193 0-17.97 0-35.702 1.023-53.139 3.014l2.132-0.198c90.704-59.076 201.703-94.209 320.908-94.209 0.401 0 0.801 0 1.202 0.001h-0.062z" />
<glyph unicode="&#xe922;" glyph-name="unfold" d="M1024 448c0-28.277-22.923-51.2-51.2-51.2v0h-409.6v-409.6c0-28.277-22.923-51.2-51.2-51.2s-51.2 22.923-51.2 51.2v0 409.6h-409.6c-28.277 0-51.2 22.923-51.2 51.2s22.923 51.2 51.2 51.2v0h409.6v409.6c0 28.277 22.923 51.2 51.2 51.2s51.2-22.923 51.2-51.2v0-409.6h409.6c28.277 0 51.2-22.923 51.2-51.2v0z" />
<glyph unicode="&#xe923;" glyph-name="whatsapp-chat" horiz-adv-x="1019" d="M870.4 811.264c-91.866 92.1-218.903 149.081-359.249 149.081-280.225 0-507.392-227.167-507.392-507.392 0-93.548 25.317-181.184 69.472-256.429l-1.295 2.388-71.936-262.912 268.8 70.656c70.087-38.943 153.7-61.891 242.669-61.952h0.019c280.104 0.348 507.038 227.496 507.038 507.648 0 140.159-56.801 267.051-148.639 358.914l0.001-0.001zM512 30.464v0c-0.009 0-0.019 0-0.029 0-79.439 0-153.744 21.982-217.163 60.196l1.896-1.060-15.36 8.96-159.744-41.984 42.752 155.648-9.984 15.872c-40.423 63.543-64.423 140.968-64.423 223.998 0 232.861 188.771 421.632 421.632 421.632s421.632-188.771 421.632-421.632c0-232.442-188.093-420.953-420.376-421.63h-0.065zM742.144 347.392c12.544-6.4 21.248-9.472 24.32-14.848l-0.089 0.633c1.001-5.888 1.523-11.939 1.523-18.111 0-15.434-3.26-30.107-8.858-42.682-10.496-29.696-61.184-56.832-85.504-60.416l1.039 0.153c-9.827-1.745-19.943-2.655-30.271-2.655-18.072 0-35.494 2.787-50.639 7.622l-5.361 1.405c-24.577 7.491-48.624 16.199-67.087 24.195-126.976 55.040-210.176 183.040-216.576 191.488l0.409-0.543c-28.693 36.665-47.273 81.626-51.609 131.615l0.001-0.1c-0.009 0.663-0.014 1.327-0.014 1.992 0 40.677 17.094 77.361 44.557 103.324l0.043 0.050c8.344 9.44 20.436 15.491 34.005 15.822h24.32c7.68-0.512 17.92 3.84 28.416-21.76s35.84-87.808 39.168-94.208l-0.063 0.13c1.784-3.361 2.795-7.196 2.795-11.266s-1.011-7.905-2.732-11.136l-0.859-1.458c-9.382-14.874-19.843-28.999-30.885-41.806-5.632-6.912-13.056-13.056-5.632-25.6l0.97-1.764c18.932-31.885 42.368-60.781 69.686-86.044l-0.339 0.297c29.389-26.221 63.303-47.477 102.739-63.273 12.8-6.4 19.968-5.376 27.392 3.072s31.744 36.864 40.192 49.664c8.448 12.8 17.152 10.496 28.672 6.4s73.728-34.816 86.528-41.216z" />
<glyph unicode="&#xe924;" glyph-name="yelp-reviews" horiz-adv-x="784" d="M289.792 301.056c23.635 7.12 40.616 28.539 40.96 53.976v0.040c0.146 1.563 0.23 3.38 0.23 5.217 0 24.667-15.038 45.822-36.446 54.797l-0.392 0.146-46.336 18.944c-168.192 69.376-168.704 69.376-179.2 69.376-0.438 0.013-0.954 0.021-1.471 0.021-18.86 0-35.338-10.197-44.222-25.379l-0.131-0.242c-20.736-33.024-25.6-121.856-19.712-171.008 1.117-17.27 5.247-33.305 11.871-47.972l-0.351 0.868c8.084-16.521 24.361-27.919 43.393-28.923l0.127-0.005h1.28c9.728 0 25.6 4.608 163.328 49.408l67.072 20.736zM370.176 267.52c-6.839 2.977-14.805 4.708-23.176 4.708-18.048 0-34.216-8.050-45.109-20.756l-0.067-0.080-32-37.888c-117.504-137.984-117.76-139.008-121.6-149.504-1.922-5.083-3.035-10.96-3.035-17.096 0-1.642 0.080-3.266 0.235-4.867l-0.016 0.203c1.159-11.353 5.708-21.468 12.604-29.512l-0.060 0.072c27.136-32.768 141.312-76.8 194.048-76.8 1.686-0.134 3.65-0.211 5.632-0.211s3.946 0.077 5.89 0.227l-0.258-0.016c18.8 2.767 34.093 15.418 40.586 32.417l0.118 0.351c3.584 10.24 3.584 11.008 4.096 173.568 0 0 0 64.768 0 68.096 0.032 0.711 0.050 1.546 0.050 2.384 0 24.854-16.026 45.964-38.308 53.562l-0.398 0.118zM765.184 240.384c-8.704 6.4-9.216 6.656-163.584 57.344l-64.768 22.272c-5.741 2.138-12.373 3.375-19.295 3.375-18.685 0-35.263-9.017-45.622-22.936l-0.108-0.151c-9.107-10.384-14.663-24.080-14.663-39.074 0-11.496 3.266-22.229 8.921-31.322l-0.146 0.252 25.6-42.496c94.976-153.6 96.256-155.136 104.704-162.048 8.213-6.388 18.672-10.242 30.032-10.242 0.152 0 0.304 0.001 0.455 0.002h-0.023c0.093-0.001 0.203-0.001 0.313-0.001 7.659 0 14.943 1.601 21.537 4.488l-0.346-0.135c42.752 16.896 128 125.952 135.168 171.52 0.555 2.829 0.872 6.083 0.872 9.41 0 16.285-7.603 30.795-19.453 40.172l-0.107 0.082zM512.512 371.2h3.584c0.924-0.176 1.986-0.277 3.072-0.277s2.148 0.101 3.178 0.294l-0.106-0.017c7.424 2.816 23.040 6.656 47.872 12.544v0c175.872 42.496 176.896 43.264 186.624 49.664 13.486 9.356 22.205 24.759 22.205 42.199 0 1.547-0.069 3.077-0.203 4.589l0.014-0.195s0 2.304 0 3.072c-4.864 47.104-81.152 159.488-121.6 179.2-6.976 3.795-15.277 6.026-24.099 6.026-10.577 0-20.405-3.207-28.564-8.702l0.183 0.116c-9.216-6.144-9.216-6.144-105.472-137.728l-40.704-55.296c-7.512-9.483-12.050-21.619-12.050-34.816 0-12.296 3.941-23.672 10.628-32.934l-0.114 0.166c10.945-16.98 29.76-28.063 51.164-28.063 1.544 0 3.075 0.058 4.59 0.171l-0.202-0.012zM388.864 921.088c-5.462 18.62-20.382 32.775-39.068 37.051l-0.356 0.069c-48.64 11.776-219.136-35.84-253.44-71.424-9.96-9.364-16.163-22.625-16.163-37.334 0-4.471 0.573-8.808 1.65-12.942l-0.079 0.356c-0.053-0.461-0.083-0.995-0.083-1.536s0.030-1.075 0.088-1.601l-0.006 0.065c4.864-9.984 161.024-256 208.64-330.752 19.968-32.256 41.984-48.64 65.024-48.64 6.062 0.065 11.863 1.090 17.287 2.931l-0.391-0.115c29.952 8.96 43.776 37.12 41.728 83.712-2.56 58.88-22.784 362.24-25.6 380.16z" />
<glyph unicode="&#xe925;" glyph-name="banner" d="M1015.808 121.6l-296.192 484.864c-9.972 15.491-27.129 25.605-46.648 25.605-0.25 0-0.5-0.002-0.749-0.005h0.038c-0.163 0.002-0.356 0.003-0.549 0.003-19.641 0-36.923-10.1-46.935-25.389l-0.131-0.214-284.672-465.664h-198.144l122.88 201.216 45.056-73.216c9.303-15.221 25.714-25.298 44.5-25.599l0.044-0.001h-1.536c0.133-0.001 0.291-0.002 0.449-0.002 18.36 0 34.529 9.383 43.973 23.615l0.122 0.195c5.033 7.788 8.025 17.305 8.025 27.52s-2.992 19.732-8.147 27.722l0.122-0.202-86.016 140.544c-10.077 16.22-27.796 26.859-48 26.859s-37.923-10.639-47.861-26.62l-0.139-0.239-207.104-340.992c-4.825-7.973-7.681-17.605-7.681-27.904s2.855-19.931 7.818-28.148l-0.137 0.244c9.919-16.953 28.038-28.16 48.775-28.16 0.043 0 0.085 0 0.128 0h911.609c0.028 0 0.061 0 0.093 0 20.463 0 38.33 11.116 47.893 27.638l0.142 0.266c4.669 7.78 7.43 17.168 7.43 27.2 0 10.719-3.152 20.702-8.58 29.073l0.127-0.208zM455.424 140.8l216.32 353.792 216.576-353.792zM332.8 870.4c-85.127-0.725-153.856-69.902-153.856-155.131 0-85.679 69.457-155.136 155.136-155.136s155.136 69.457 155.136 155.136c0 0.088 0 0.176 0 0.264v-0.014c-0.725 85.693-70.36 154.88-156.155 154.88-0.092 0-0.184 0-0.276 0h0.014zM332.8 665.6c-28.277 0-51.2 22.923-51.2 51.2s22.923 51.2 51.2 51.2c28.277 0 51.2-22.923 51.2-51.2v0c0-0.076 0.001-0.166 0.001-0.256 0-28.277-22.923-51.2-51.2-51.2 0 0 0 0-0.001 0v0z" />
<glyph unicode="&#xe926;" glyph-name="blog" d="M964.096 900.096c-37.044 36.957-88.173 59.809-144.64 59.809s-107.596-22.852-144.644-59.813l-590.332-590.076c-6.357-6.46-11.016-14.609-13.24-23.713l-0.072-0.351-69.632-286.72c-0.897-3.586-1.412-7.703-1.412-11.94 0-14.13 5.724-26.924 14.98-36.188v0c9.226-9.28 21.982-15.043 36.084-15.104h0.012c0.030 0 0.065 0 0.101 0 4.241 0 8.351 0.561 12.261 1.612l-0.329-0.075 106.24 25.6h1.792l179.2 43.52c9.455 2.296 17.604 6.955 24.071 13.319l-0.007-0.007 588.8 590.336c37.339 37.107 60.45 88.494 60.45 145.28 0 56.403-22.801 107.481-59.689 144.519l0.007-0.007zM311.808 103.168l-135.936-33.024-41.472 42.24 32.768 135.424 482.816 481.792c-0.41-2.383-0.644-5.128-0.644-7.928 0-13.735 5.634-26.154 14.716-35.073l116.231-116.231zM891.648 683.008l-39.168-39.168-116.224 116.224c-9.24 9.121-21.943 14.755-35.961 14.755-2.304 0-4.572-0.152-6.796-0.447l0.261 0.028 53.248 53.248c18.1 16.447 42.252 26.517 68.757 26.517 56.554 0 102.4-45.846 102.4-102.4 0-26.504-10.070-50.657-26.592-68.841l0.075 0.084z" />
<glyph unicode="&#xe927;" glyph-name="button" d="M512-64c-282.77 0-512 229.23-512 512s229.23 512 512 512c282.77 0 512-229.23 512-512v0c0-282.77-229.23-512-512-512v0zM512 857.6c-226.216 0-409.6-183.384-409.6-409.6s183.384-409.6 409.6-409.6c226.216 0 409.6 183.384 409.6 409.6v0c0 226.216-183.384 409.6-409.6 409.6v0zM668.16 240.64h-312.32c-28.277 0-51.2 22.923-51.2 51.2v0 312.32c0 28.277 22.923 51.2 51.2 51.2s51.2-22.923 51.2-51.2v0-261.12h209.92v209.92h-104.96c-28.277 0-51.2 22.923-51.2 51.2s22.923 51.2 51.2 51.2v0h156.16c28.277 0 51.2-22.923 51.2-51.2v0-312.32c0-28.277-22.923-51.2-51.2-51.2v0z" />
<glyph unicode="&#xe928;" glyph-name="carousel" d="M378.112 69.888c-14.669 0.259-27.859 6.382-37.366 16.117l-0.010 0.011-325.632 322.56c-9.050 9.228-14.636 21.882-14.636 35.84s5.586 26.612 14.644 35.848l-0.008-0.008 325.632 322.56c9.606 9.264 22.697 14.971 37.12 14.971s27.514-5.707 37.136-14.987l-0.016 0.015c9.277-9.267 15.016-22.075 15.016-36.224s-5.739-26.957-15.016-36.224v0l-288.768-285.952 289.536-287.488c9.277-9.267 15.016-22.075 15.016-36.224s-5.739-26.957-15.016-36.224v0c-9.56-9.041-22.496-14.6-36.73-14.6-0.317 0-0.633 0.003-0.949 0.008l0.047-0.001zM645.888 69.888c-0.042 0-0.092 0-0.141 0-14.23 0-27.163 5.555-36.748 14.616l0.025-0.024c-9.277 9.267-15.016 22.075-15.016 36.224s5.739 26.957 15.016 36.224v0l288.768 287.488-289.536 287.488c-9.277 9.267-15.016 22.075-15.016 36.224s5.739 26.957 15.016 36.224v0c9.58 9.322 22.679 15.071 37.12 15.071s27.54-5.749 37.132-15.083l-0.012 0.012 326.4-324.096c9.050-9.228 14.636-21.882 14.636-35.84s-5.586-26.612-14.644-35.848l0.008 0.008-325.632-322.56c-9.517-9.746-22.707-15.869-37.328-16.127l-0.048-0.001z" />
<glyph unicode="&#xe929;" glyph-name="contact-form" d="M972.8 622.592c-28.277 0-51.2-22.923-51.2-51.2v0-379.392c0-28.277-22.923-51.2-51.2-51.2v0h-716.8c-28.277 0-51.2 22.923-51.2 51.2v0 500.736l377.344-307.2c8.717-7.152 19.977-11.495 32.251-11.52h0.005c0.064 0 0.14 0 0.216 0 12.172 0 23.351 4.247 32.138 11.341l-0.097-0.076 428.544 348.16c4.477 3.717 8.294 8.022 11.387 12.835l0.133 0.221 23.808 23.296c9.508 9.304 15.403 22.267 15.403 36.606 0 12.62-4.566 24.174-12.136 33.1l0.061-0.074c-9.453 11.162-23.478 18.2-39.146 18.2-0.548 0-1.094-0.009-1.637-0.026l0.079 0.002h-842.752c-70.692 0-128-57.308-128-128v0-537.6c0-84.831 68.769-153.6 153.6-153.6v0h716.8c84.831 0 153.6 68.769 153.6 153.6v0 379.392c0 28.277-22.923 51.2-51.2 51.2v0zM837.12 755.2l-325.12-263.936-323.84 263.936z" />
<glyph unicode="&#xe92a;" glyph-name="countdown" d="M1024 712.704v-619.52c0-70.692-57.308-128-128-128v0h-768c-70.692 0-128 57.308-128 128v0 619.52c0 70.692 57.308 128 128 128v0h136.192v42.496c0 28.277 22.923 51.2 51.2 51.2v0c0.012 0 0.026 0 0.041 0 14.192 0 27.035-5.774 36.309-15.102l0.002-0.002c9.177-9.25 14.849-21.991 14.849-36.056 0-0.104 0-0.208-0.001-0.312v0.016-42.24h290.816v42.24c0 0.012 0 0.026 0 0.041 0 28.277 22.923 51.2 51.2 51.2 14.085 0 26.842-5.687 36.098-14.891l-0.002 0.002c9.28-9.226 15.043-21.982 15.104-36.084v-192.78c0-28.277-22.923-51.2-51.2-51.2v0 0c-28.277 0-51.2 22.923-51.2 51.2v0 47.872h-290.816v-48.128c0-28.277-22.923-51.2-51.2-51.2s-51.2 22.923-51.2 51.2v0 48.128h-136.192c-14.138 0-25.6-11.462-25.6-25.6v0-619.52c0-14.138 11.462-25.6 25.6-25.6v0h768c14.138 0 25.6 11.462 25.6 25.6v0 619.52c0 14.138-11.462 25.6-25.6 25.6v0h-43.008c-28.277 0-51.2 22.923-51.2 51.2s22.923 51.2 51.2 51.2v0h43.008c70.692 0 128-57.308 128-128v0zM315.392 407.040c-28.277 0-51.2 22.923-51.2 51.2v0 0c0 28.277 22.923 51.2 51.2 51.2s51.2-22.923 51.2-51.2v0c0-28.277-22.923-51.2-51.2-51.2v0zM315.392 207.36c-28.277 0-51.2 22.923-51.2 51.2v0 1.28c0 28.277 22.923 51.2 51.2 51.2s51.2-22.923 51.2-51.2c0-28.277-22.923-51.2-51.2-51.2v0zM512 406.784c-13.641 0.127-25.986 5.569-35.087 14.351l0.015-0.015c-9.501 9.308-15.391 22.27-15.391 36.608 0 28.294 22.937 51.231 51.231 51.231 13.956 0 26.609-5.581 35.849-14.632l-0.009 0.008c9.819-9.347 15.926-22.515 15.926-37.11 0-13.963-5.59-26.621-14.653-35.858l0.008 0.008c-9.227-9.048-21.88-14.633-35.837-14.633-0.721 0-1.439 0.015-2.153 0.044l0.102-0.003zM512 206.848c-13.641 0.127-25.986 5.569-35.087 14.351l0.015-0.015v1.28c-7.765 8.927-12.498 20.671-12.498 33.52 0 28.277 22.923 51.2 51.2 51.2 12.018 0 23.069-4.141 31.804-11.073l-0.106 0.081c10.492-9.416 17.062-23.019 17.062-38.158 0-28.277-22.923-51.2-51.2-51.2-0.418 0-0.836 0.005-1.251 0.015l0.062-0.001zM708.608 407.040c-28.277 0-51.2 22.923-51.2 51.2v0 0c0 28.277 22.923 51.2 51.2 51.2s51.2-22.923 51.2-51.2c0-28.277-22.923-51.2-51.2-51.2v0zM708.608 207.36c-28.277 0-51.2 22.923-51.2 51.2v0 1.28c0 28.277 22.923 51.2 51.2 51.2s51.2-22.923 51.2-51.2c0-28.277-22.923-51.2-51.2-51.2v0z" />
<glyph unicode="&#xe92b;" glyph-name="counter" horiz-adv-x="867" d="M552.192 211.968c-0.045 0-0.097 0-0.15 0-13.146 0-25.135 4.954-34.201 13.098l0.047-0.042-118.528 106.752c-10.365 9.381-16.859 22.872-16.896 37.881v215.815c0 28.277 22.923 51.2 51.2 51.2s51.2-22.923 51.2-51.2v0-193.024l102.4-91.392c10.315-9.401 16.763-22.891 16.763-37.888 0-28.23-22.847-51.124-51.060-51.2h-0.007zM484.864 800.512v57.088h113.408c28.277 0 51.2 22.923 51.2 51.2s-22.923 51.2-51.2 51.2v0h-329.216c-28.277 0-51.2-22.923-51.2-51.2s22.923-51.2 51.2-51.2v0h113.408v-57.088c-216.459-26.479-382.464-209.169-382.464-430.631 0-239.506 194.158-433.664 433.664-433.664s433.664 194.158 433.664 433.664c0 221.462-166.006 404.152-380.369 430.422l-2.095 0.209zM433.664 38.4c-0.076 0-0.166 0-0.256 0-183.093 0-331.52 148.427-331.52 331.52s148.427 331.52 331.52 331.52c183.093 0 331.52-148.427 331.52-331.52 0-0.090 0-0.18 0-0.27v0.014c-0.868-182.602-148.662-330.396-331.181-331.264h-0.083z" />
<glyph unicode="&#xe92c;" glyph-name="dual-heading" d="M642.56 499.2h327.68c29.691 0 53.76-24.069 53.76-53.76s-24.069-53.76-53.76-53.76h-327.68c-29.691 0-53.76 24.069-53.76 53.76s24.069 53.76 53.76 53.76zM53.76 499.2h327.68c29.691 0 53.76-24.069 53.76-53.76s-24.069-53.76-53.76-53.76h-327.68c-29.691 0-53.76 24.069-53.76 53.76s24.069 53.76 53.76 53.76z" />
<glyph unicode="&#xe92d;" glyph-name="fancy-text" horiz-adv-x="401" d="M398.080 16.128c2.095-5.875 3.306-12.652 3.306-19.712 0-33.359-27.037-60.404-60.393-60.416h-278.273c-0.51-0.015-1.111-0.024-1.713-0.024-26.6 0-49.252 16.904-57.8 40.556l-0.135 0.428c-1.923 5.656-3.034 12.171-3.034 18.945 0 33.405 26.996 60.504 60.362 60.671h80.144v782.848h-76.8c-0.733-0.031-1.593-0.049-2.457-0.049-26.752 0-49.527 17.027-58.080 40.835l-0.135 0.43c-1.932 5.655-3.047 12.169-3.047 18.944 0 33.358 27.035 60.402 60.389 60.416h278.017c0.487 0.014 1.060 0.022 1.635 0.022 26.406 0 48.953-16.52 57.87-39.789l0.143-0.424c2.086-5.876 3.292-12.654 3.292-19.713 0-33.405-26.997-60.505-60.364-60.671h-80.144v-782.848h76.8c0.686 0.027 1.491 0.043 2.3 0.043 26.51 0 49.131-16.651 57.975-40.064l0.141-0.426z" />
<glyph unicode="&#xe92e;" glyph-name="google-maps" horiz-adv-x="826" d="M412.928 380.416c-0.004 0-0.008 0-0.013 0-49.482 0-94.279 20.055-126.707 52.48v0c-32.433 32.43-52.493 77.232-52.493 126.72 0 98.969 80.231 179.2 179.2 179.2s179.2-80.231 179.2-179.2c0-98.965-80.223-179.193-179.186-179.2h-0.001zM358.656 505.344c13.895-13.878 33.081-22.46 54.272-22.46 42.392 0 76.761 34.346 76.8 76.729v0.004c-0.019 21.2-8.625 40.386-22.527 54.271l-0.001 0.001c-14.056 13.52-33.191 21.846-54.272 21.846s-40.216-8.327-54.297-21.871l0.025 0.024c-13.878-13.895-22.46-33.081-22.46-54.272s8.583-40.377 22.461-54.273l-0.001 0.001zM825.6 535.040c-14.080-340.224-348.16-566.784-384-588.8l-5.632-3.328-5.632-2.56-4.608-1.536c-0.654-0.112-1.408-0.176-2.176-0.176s-1.522 0.064-2.255 0.187l0.079-0.011c-2.847-0.651-6.116-1.025-9.472-1.025s-6.625 0.373-9.768 1.081l0.296-0.056c-0.654-0.112-1.408-0.176-2.176-0.176s-1.522 0.064-2.255 0.187l0.079-0.011-4.608 1.536c-2.054 0.622-3.836 1.405-5.499 2.37l0.123-0.066-3.584 2.048-2.304 1.536c-25.088 15.36-245.504 165.376-339.968 399.36-6.144 15.104-11.776 30.72-16.64 46.080-1.494 4.592-2.356 9.875-2.356 15.36 0 28.306 22.946 51.252 51.252 51.252 22.821 0 42.158-14.915 48.795-35.529l0.101-0.363c4.096-12.8 8.704-25.6 13.824-38.4 67.328-166.4 214.272-288.768 275.712-334.080 78.592 58.368 300.032 244.48 310.272 489.216 0.060 2.287 0.095 4.98 0.095 7.68 0 171.495-138.905 310.546-310.344 310.784h-0.023c-171.462-0.238-310.367-139.289-310.367-310.784 0-2.701 0.034-5.393 0.103-8.077l-0.008 0.397c0.028-0.638 0.045-1.386 0.045-2.138 0-27.212-21.229-49.466-48.029-51.103l-0.144-0.007h-3.072c-0.012 0-0.027 0-0.041 0-27.557 0-50.029 21.77-51.156 49.050l-0.003 0.102c-0.102 3.432-0.161 7.47-0.161 11.52 0 228.123 184.758 413.094 412.8 413.44h0.033c228.075-0.346 412.833-185.317 412.833-413.44 0-4.051-0.058-8.089-0.174-12.112l0.013 0.592z" />
<glyph unicode="&#xe92f;" glyph-name="heading" horiz-adv-x="903" d="M903.68 899.84v-91.136c0.006-0.326 0.010-0.711 0.010-1.097 0-27.118-17.496-50.15-41.815-58.423l-0.435-0.128c-5.359-1.725-11.524-2.719-17.921-2.719-33.243 0-60.215 26.848-60.415 60.044v33.043h-271.104v-782.848h76.8c0.458 0.012 0.997 0.019 1.538 0.019 26.498 0 49.143-16.5 58.22-39.786l0.146-0.425c2.087-5.878 3.293-12.657 3.293-19.717 0-33.226-26.708-60.214-59.827-60.666h-277.803c-0.458-0.012-0.997-0.019-1.538-0.019-26.498 0-49.143 16.5-58.22 39.786l-0.146 0.425c-2.086 5.876-3.292 12.654-3.292 19.713 0 33.405 26.997 60.505 60.364 60.671h80.144v782.848h-271.104v-33.024c-0.2-33.215-27.172-60.063-60.415-60.063-6.397 0-12.562 0.994-18.349 2.837l0.428-0.118c-24.754 8.402-42.25 31.433-42.25 58.551 0 0.386 0.004 0.771 0.011 1.155l-0.001-0.058v91.136c0.145 33.257 27.139 60.16 60.415 60.16 0 0 0 0 0.001 0h782.848c0 0 0 0 0.001 0 33.277 0 60.27-26.903 60.415-60.146v-0.014z" />
<glyph unicode="&#xe930;" glyph-name="icon-list" d="M972.8 739.072h-660.736c-28.277 0-51.2 22.923-51.2 51.2s22.923 51.2 51.2 51.2v0h660.736c28.277 0 51.2-22.923 51.2-51.2s-22.923-51.2-51.2-51.2v0zM185.6 790.528c0-0.076 0-0.166 0-0.256 0-51.323-41.605-92.928-92.928-92.928s-92.928 41.605-92.928 92.928c0 51.323 41.605 92.928 92.928 92.928v0c51.175-0.144 92.638-41.518 92.928-92.644v-0.028zM972.8 391.168h-660.736c-28.277 0-51.2 22.923-51.2 51.2s22.923 51.2 51.2 51.2v0h660.736c28.277 0 51.2-22.923 51.2-51.2s-22.923-51.2-51.2-51.2v0zM185.344 442.368c0-51.181-41.491-92.672-92.672-92.672s-92.672 41.491-92.672 92.672c0 51.181 41.491 92.672 92.672 92.672s92.672-41.491 92.672-92.672zM972.8 43.008h-660.736c-28.277 0-51.2 22.923-51.2 51.2s22.923 51.2 51.2 51.2v0h660.736c28.277 0 51.2-22.923 51.2-51.2s-22.923-51.2-51.2-51.2v0zM185.344 94.208c0-51.181-41.491-92.672-92.672-92.672s-92.672 41.491-92.672 92.672c0 51.181 41.491 92.672 92.672 92.672s92.672-41.491 92.672-92.672z" />
<glyph unicode="&#xe931;" glyph-name="image-button" d="M972.8 468.48c28.277 0 51.2 22.923 51.2 51.2v0 222.72c0 84.831-68.769 153.6-153.6 153.6v0h-716.8c-84.831 0-153.6-68.769-153.6-153.6v0-584.192c0-84.831 68.769-153.6 153.6-153.6v0h742.4c70.692 0 128 57.308 128 128v0 144.128c0.002 0.141 0.002 0.307 0.002 0.474 0 6.282-1.223 12.278-3.444 17.764l0.114-0.318v2.048c-1.215 2.988-2.503 5.514-3.974 7.915l0.134-0.235c-1.859 2.572-3.706 4.826-5.678 6.962l0.046-0.050-316.928 323.84c-9.193 9.374-21.948 15.226-36.071 15.36h-0.025c-14.213-0.161-27.082-5.786-36.631-14.869l0.023 0.021-508.928-508.16c-6.393 8.45-10.24 19.136-10.24 30.72v0 584.192c0 28.277 22.923 51.2 51.2 51.2v0h716.8c28.277 0 51.2-22.923 51.2-51.2v0-222.72c0-28.277 22.923-51.2 51.2-51.2v0zM657.152 527.104l264.448-271.36v-123.136c0-14.138-11.462-25.6-25.6-25.6v0h-659.2zM434.688 590.080c0-56.554-45.846-102.4-102.4-102.4s-102.4 45.846-102.4 102.4c0 56.554 45.846 102.4 102.4 102.4s102.4-45.846 102.4-102.4z" />
<glyph unicode="&#xe932;" glyph-name="image-scroll" horiz-adv-x="624" d="M311.808-64c-172.148 0.146-311.662 139.66-311.808 311.794v400.398c0 172.207 139.601 311.808 311.808 311.808s311.808-139.601 311.808-311.808v0-400.384c-0.291-172.090-139.719-311.517-311.78-311.808h-0.028zM311.808 857.6c-115.594-0.146-209.262-93.814-209.408-209.394v-400.398c0-115.653 93.755-209.408 209.408-209.408s209.408 93.755 209.408 209.408v0 400.384c-0.146 115.594-93.814 209.262-209.394 209.408h-0.014zM311.808 488.704c-28.277 0-51.2 22.923-51.2 51.2v0 102.4c0 28.277 22.923 51.2 51.2 51.2s51.2-22.923 51.2-51.2v0-102.4c0-28.277-22.923-51.2-51.2-51.2v0z" />
<glyph unicode="&#xe933;" glyph-name="image-separator" d="M870.4 24.576h-716.8c-84.831 0-153.6 68.769-153.6 153.6v0 399.104c0 84.831 68.769 153.6 153.6 153.6v0h66.048c0.032 0 0.069 0 0.106 0 19.672 0 36.753 11.095 45.327 27.368l0.134 0.28 16.384 29.184c26.159 49.501 77.3 82.664 136.189 82.688h190.979c58.892-0.024 110.033-33.187 135.789-81.853l0.403-0.835 15.104-29.184c8.708-16.553 25.789-27.648 45.462-27.648 0.037 0 0.075 0 0.112 0h64.762c84.831 0 153.6-68.769 153.6-153.6v0-399.104c0-84.831-68.769-153.6-153.6-153.6v0zM153.6 628.48c-28.277 0-51.2-22.923-51.2-51.2v0-399.104c0-28.277 22.923-51.2 51.2-51.2v0h716.8c28.277 0 51.2 22.923 51.2 51.2v0 399.104c0 28.277-22.923 51.2-51.2 51.2v0h-66.048c-58.892 0.024-110.033 33.187-135.789 81.853l-0.403 0.835-15.36 29.184c-8.685 16.51-25.698 27.589-45.304 27.648h-190.984c-19.614-0.059-36.627-11.138-45.178-27.368l-0.134-0.28-15.36-29.184c-26.159-49.501-77.3-82.664-136.189-82.688h-0.003zM512 189.696c-123.005 0-222.72 99.715-222.72 222.72s99.715 222.72 222.72 222.72c123.005 0 222.72-99.715 222.72-222.72 0-0.090 0-0.18 0-0.27v0.014c-0.146-122.895-99.805-222.464-222.72-222.464 0 0 0 0 0 0v0zM512 532.48c-66.451 0-120.32-53.869-120.32-120.32s53.869-120.32 120.32-120.32c66.451 0 120.32 53.869 120.32 120.32v0c-0.145 66.392-53.928 120.175-120.306 120.32h-0.014z" />
<glyph unicode="&#xe934;" glyph-name="lottie-animations-fill" d="M512 960c-282.77 0-512-229.23-512-512s229.23-512 512-512c282.77 0 512 229.23 512 512v0c0 282.77-229.23 512-512 512v0zM815.104 697.856c-1.28-25.6-22.016-43.52-54.784-43.52-0.117 0.001-0.256 0.001-0.395 0.001-21.459 0-41.11-7.743-56.311-20.587l0.129 0.106c-4.444-3.303-8.369-6.66-12.054-10.261l0.022 0.021c-29.226-26.509-54.608-56.449-75.742-89.375l-1.058-1.761c-12.544-19.2-25.6-40.448-40.704-68.096l-19.456-35.072c-9.472-17.664-19.456-35.328-29.44-52.992-7.424-13.568-15.36-26.88-23.040-39.936-11.008-16.896-23.808-37.12-38.912-57.088-27.040-37.641-58.962-69.645-95.295-95.93l-1.217-0.838c-27.86-20.498-62.85-32.803-100.714-32.803-1.223 0-2.443 0.013-3.66 0.038l0.182-0.003c-0.69-0.030-1.5-0.047-2.313-0.047-15.781 0-30.073 6.375-40.442 16.689l0.002-0.002c-6.884 7.419-11.108 17.39-11.108 28.348 0 1.015 0.036 2.021 0.107 3.018l-0.008-0.134c1.28 25.6 22.016 43.52 54.784 43.52 21.567 0.154 41.304 7.861 56.728 20.602l-0.152-0.122c4.444 3.303 8.369 6.66 12.054 10.261l-0.022-0.021c29.226 26.509 54.608 56.449 75.742 89.375l1.058 1.761c12.544 19.2 25.6 40.448 40.704 67.84l3.072 5.12c5.376 10.24 11.008 20.224 16.384 30.208 9.472 17.664 19.456 35.328 29.44 52.992 7.424 13.568 15.36 27.136 23.040 39.936 11.008 17.152 23.808 37.12 38.912 57.088 27.107 37.585 59.019 69.578 95.296 95.926l1.216 0.842c27.719 20.5 62.576 32.812 100.308 32.812 1.366 0 2.728-0.016 4.086-0.048l-0.202 0.004c0.84 0.044 1.823 0.069 2.811 0.069 15.535 0 29.628-6.178 39.954-16.21l-0.014 0.013c6.877-7.382 11.098-17.317 11.098-28.238 0-0.963-0.033-1.919-0.097-2.866l0.007 0.128z" />
<glyph unicode="&#xe935;" glyph-name="lottie-animations-outline" d="M512-64c-282.77 0-512 229.23-512 512s229.23 512 512 512c282.77 0 512-229.23 512-512v0c0-282.77-229.23-512-512-512v0zM512 857.6c-226.216 0-409.6-183.384-409.6-409.6s183.384-409.6 409.6-409.6c226.216 0 409.6 183.384 409.6 409.6v0c0 226.216-183.384 409.6-409.6 409.6v0zM739.328 621.312c-1.926-25.559-23.137-45.566-49.021-45.566-1.759 0-3.497 0.092-5.208 0.273l0.213-0.018c-11.454-0.008-21.934-4.17-30.017-11.062l0.065 0.054c-2.564-1.895-4.824-3.911-6.886-6.116l-0.026-0.028c-19.643-17.531-36.584-37.485-50.523-59.526l-0.677-1.146c-8.704-13.312-17.664-27.904-27.904-46.336l-13.568-25.6c-6.656-12.288-13.568-25.6-20.736-37.376s-10.752-18.944-16.384-27.904l-3.328-5.12c-6.912-11.008-15.104-23.808-25.6-36.096-20.020-27.622-43.546-51.148-70.265-70.543l-0.903-0.625c-21.303-15.57-47.891-25.092-76.679-25.598l-0.121-0.002h-4.096c-16.134 0.135-30.693 6.766-41.211 17.403l-0.005 0.005c-7.215 8.028-11.628 18.702-11.628 30.406 0 1.102 0.039 2.194 0.116 3.276l-0.008-0.145c1.536 25.904 22.918 46.329 49.071 46.329 1.742 0 3.462-0.091 5.157-0.267l-0.212 0.018c11.347 0.187 21.695 4.314 29.771 11.069l-0.075-0.061c2.564 1.895 4.824 3.911 6.886 6.116l0.026 0.028c19.643 17.531 36.584 37.485 50.523 59.526l0.677 1.146c9.472 14.336 18.432 29.184 27.904 46.336l2.048 3.584 6.144 11.52 5.376 9.472c6.656 12.288 13.568 25.6 20.736 37.376s10.496 18.944 16.384 28.16 16.128 25.6 27.904 40.96c20.013 27.628 43.54 51.155 70.265 70.544l0.903 0.624c21.859 16.026 49.289 25.645 78.966 25.645 1.219 0 2.434-0.016 3.645-0.048l-0.179 0.004c15.958-0.22 30.328-6.838 40.695-17.399l0.009-0.009c7.352-8.027 11.858-18.768 11.858-30.561 0-0.957-0.030-1.906-0.088-2.848l0.006 0.129z" />
<glyph unicode="&#xe936;" glyph-name="media-grid" d="M384 524.8h-332.8c-28.277 0-51.2 22.923-51.2 51.2v0 332.8c0 28.277 22.923 51.2 51.2 51.2v0h332.8c28.277 0 51.2-22.923 51.2-51.2v0-332.8c0-28.277-22.923-51.2-51.2-51.2v0zM102.4 627.2h230.4v230.4h-230.4zM384-64h-332.8c-28.277 0-51.2 22.923-51.2 51.2v0 332.8c0 28.277 22.923 51.2 51.2 51.2v0h332.8c28.277 0 51.2-22.923 51.2-51.2v0-332.8c0-28.277-22.923-51.2-51.2-51.2v0zM102.4 38.4h230.4v230.4h-230.4zM972.8 524.8h-332.8c-28.277 0-51.2 22.923-51.2 51.2v0 332.8c0 28.277 22.923 51.2 51.2 51.2v0h332.8c28.277 0 51.2-22.923 51.2-51.2v0-332.8c0-28.277-22.923-51.2-51.2-51.2v0zM691.2 627.2h230.4v230.4h-230.4zM972.8-64h-332.8c-28.277 0-51.2 22.923-51.2 51.2v0 332.8c0 28.277 22.923 51.2 51.2 51.2v0h332.8c28.277 0 51.2-22.923 51.2-51.2v0-332.8c0-28.277-22.923-51.2-51.2-51.2v0zM691.2 38.4h230.4v230.4h-230.4z" />
<glyph unicode="&#xe937;" glyph-name="modal-box" horiz-adv-x="1025" d="M751.275-64.769h-589.537c-0.381-0.003-0.831-0.005-1.282-0.005-88.618 0-160.457 71.839-160.457 160.457 0 0.002 0 0.004 0 0.006v0 587.999c0.291 88.397 72.018 159.944 160.456 159.944 0.090 0 0.181 0 0.271 0h371.907c29.445 0 53.315-23.87 53.315-53.315s-23.87-53.315-53.315-53.315h-371.921c-0.076 0-0.166 0.001-0.256 0.001-29.445 0-53.315-23.87-53.315-53.315 0 0 0 0 0-0.001v0-587.999c0.146-29.476 24.074-53.315 53.57-53.315 0 0 0 0 0.001 0h589.537c0 0 0 0 0.001 0 29.496 0 53.425 23.839 53.57 53.301v374.754c0 29.586 23.985 53.571 53.571 53.571s53.571-23.985 53.571-53.571v0-374.74c0 0 0-0.001 0-0.002 0-88.347-71.401-160.018-159.646-160.455h-0.042zM1008.621 642.675c-9.748-10.038-23.37-16.267-38.448-16.267s-28.7 6.229-38.435 16.254l-0.013 0.013-73.308 74.846-76.896-76.896c-9.84-9.84-23.433-15.926-38.448-15.926-30.030 0-54.374 24.344-54.374 54.374 0 15.015 6.086 28.608 15.926 38.448v0l76.896 75.615-73.308 74.589c-10.391 9.753-16.865 23.575-16.865 38.908 0 29.445 23.87 53.315 53.315 53.315 15.334 0 29.156-6.473 38.882-16.836l0.027-0.029 74.589-74.589 76.896 76.896c9.84 9.84 23.433 15.926 38.448 15.926 30.030 0 54.374-24.344 54.374-54.374 0-15.015-6.086-28.608-15.926-38.448l-76.896-76.896 74.589-74.589c8.972-9.555 14.484-22.451 14.484-36.634 0-14.703-5.923-28.023-15.514-37.703l0.004 0.004z" />
<glyph unicode="&#xe938;" glyph-name="pricing-table" horiz-adv-x="749" d="M589.824 960h-430.592c-88.004-0.291-159.232-71.699-159.232-159.743 0 0 0-0.001 0-0.001v0-704.512c0 0 0-0.001 0-0.001 0-88.044 71.228-159.452 159.204-159.743h430.62c88.004 0.291 159.232 71.699 159.232 159.743 0 0 0 0.001 0 0.001v0 704.512c0 0 0 0.001 0 0.001 0 88.044-71.228 159.452-159.204 159.743h-0.028zM649.984 95.744c0-33.225-26.935-60.16-60.16-60.16v0h-430.592c-33.225 0-60.16 26.935-60.16 60.16v704.512c0 33.225 26.935 60.16 60.16 60.16v0h430.592c33.225 0 60.16-26.935 60.16-60.16v0zM487.168 378.88c-5.15-40.576-33.827-73.292-71.737-84.303l-0.711-0.177v-51.2h-79.36v46.336h-27.136c0 0-0.001 0-0.001 0-21.825 0-39.534 17.62-39.679 39.41v0.014c0.142 21.909 17.792 39.649 39.653 39.936h80.155c11.169 0 20.224 9.055 20.224 20.224s-9.055 20.224-20.224 20.224h-24.064c-0.238-0.002-0.52-0.003-0.803-0.003-52.043 0-95.018 38.824-101.543 89.089l-0.055 0.514c-0.322 3-0.505 6.48-0.505 10.002 0 46.494 31.945 85.528 75.084 96.348l0.685 0.145v47.36h79.104v-44.8h25.6c21.915 0 39.68-17.765 39.68-39.68s-17.765-39.68-39.68-39.68h-81.152c-11.169 0-20.224-9.055-20.224-20.224s9.055-20.224 20.224-20.224h28.16c54.652-0.455 98.781-44.864 98.781-99.581 0-3.427-0.173-6.813-0.511-10.151l0.034 0.42z" />
<glyph unicode="&#xe939;" glyph-name="progress-bar" d="M969.472 730.88h-355.072c-18.657-30.236-51.603-50.084-89.185-50.084-9.523 0-18.749 1.274-27.515 3.662l0.732-0.17c-44.754 10.952-77.444 50.712-77.444 98.107 0 55.706 45.158 100.864 100.864 100.864 1.217 0 2.429-0.022 3.635-0.064l-0.175 0.005c0.086 0 0.188 0 0.29 0 37.431 0 70.241-19.787 88.54-49.472l0.257-0.449h358.4c0.039 0 0.086 0 0.132 0 28.277 0 51.2-22.923 51.2-51.2 0-5.864-0.986-11.497-2.801-16.744l0.108 0.36c-7.793-20.524-27.297-34.847-50.146-34.847-0.641 0-1.279 0.011-1.914 0.034l0.092-0.003zM326.656 730.88h-271.872c-0.344-0.008-0.75-0.013-1.157-0.013-22.746 0-42.177 14.194-49.918 34.207l-0.124 0.365c-1.762 4.961-2.78 10.683-2.78 16.642 0 28.277 22.923 51.2 51.2 51.2 0.167 0 0.335-0.001 0.502-0.002h272.102c0.344 0.008 0.75 0.013 1.157 0.013 22.746 0 42.177-14.194 49.918-34.207l0.124-0.365c1.763-4.962 2.781-10.685 2.781-16.645 0-28.277-22.923-51.2-51.2-51.2-0.258 0-0.515 0.002-0.772 0.006h0.039zM256 65.28h-201.216c-0.344-0.008-0.75-0.013-1.157-0.013-22.746 0-42.177 14.194-49.918 34.207l-0.124 0.365c-1.762 4.961-2.78 10.683-2.78 16.642 0 28.277 22.923 51.2 51.2 51.2 0.167 0 0.335-0.001 0.502-0.002h201.958c0.344 0.008 0.75 0.013 1.157 0.013 22.746 0 42.177-14.194 49.918-34.207l0.124-0.365c1.765-4.965 2.785-10.691 2.785-16.655 0-28.277-22.923-51.2-51.2-51.2-0.439 0-0.877 0.006-1.313 0.017l0.065-0.001zM972.8 398.080h-93.184c-28.277 0-51.2 22.923-51.2 51.2s22.923 51.2 51.2 51.2v0h93.184c28.277 0 51.2-22.923 51.2-51.2s-22.923-51.2-51.2-51.2v0zM799.232 449.28c-0.722-56.001-46.288-101.12-102.392-101.12-0.003 0-0.006 0-0.008 0v0c-0.645-0.015-1.406-0.023-2.169-0.023-37.19 0-69.75 19.826-87.686 49.485l-0.257 0.458h-554.24c-28.277 0-51.2 22.923-51.2 51.2s22.923 51.2 51.2 51.2v0h554.24c18.196 30.108 50.75 49.927 87.933 49.927 0.406 0 0.811-0.002 1.216-0.007l-0.062 0.001c0.307 0.003 0.669 0.005 1.032 0.005 56.106 0 101.673-45.122 102.391-101.057l0.001-0.068zM969.472 167.68c0.316 0.007 0.689 0.011 1.062 0.011 22.841 0 42.34-14.313 50.015-34.459l0.123-0.367c1.707-4.888 2.694-10.523 2.694-16.388 0-28.054-22.563-50.838-50.532-51.196h-430.882c-18.035-30.824-50.979-51.201-88.681-51.201-0.143 0-0.286 0-0.429 0.001h0.022c-4.852-0.815-10.442-1.28-16.14-1.28-56.554 0-102.4 45.846-102.4 102.4s45.846 102.4 102.4 102.4c5.699 0 11.288-0.465 16.734-1.361l-0.593 0.081c0.572 0.012 1.247 0.018 1.924 0.018 36.662 0 68.824-19.267 86.913-48.227l0.251-0.431z" />
<glyph unicode="&#xe93a;" glyph-name="team-members" d="M723.456 414.208c63.021 57.606 102.4 140.17 102.4 231.931 0 173.338-140.518 313.856-313.856 313.856s-313.856-140.518-313.856-313.856c0-91.761 39.379-174.325 102.159-231.714l0.241-0.217c-176.376-63.598-300.249-229.391-300.544-424.156v-0.036c0.145-29.774 24.242-53.871 54.002-54.016h0.014c29.722 0.145 53.76 24.273 53.76 54.015 0 0 0 0 0 0.001v0c0.436 188.804 153.447 341.726 342.244 342.016h123.932c188.825-0.29 341.836-153.212 342.272-341.974v-0.042c-0.082-1.112-0.128-2.409-0.128-3.716 0-29.832 24.184-54.016 54.016-54.016s54.016 24.184 54.016 54.016c0 1.308-0.046 2.605-0.138 3.889l0.010-0.173c-0.295 194.801-124.168 360.594-297.406 423.201l-3.138 0.991zM307.2 646.144c0.148 113.703 92.356 205.82 206.080 205.82 113.815 0 206.080-92.265 206.080-206.080s-92.265-206.080-206.080-206.080c-0.45 0-0.9 0.001-1.349 0.004h0.069c-113.294 0.87-204.8 92.914-204.8 206.33 0 0.002 0 0.004 0 0.006v0z" />
<glyph unicode="&#xe93b;" glyph-name="testimonials" d="M512 10.752c-0.012 0-0.026 0-0.041 0-14.065 0-26.805 5.671-36.058 14.851l-125.437 125.437c-9.276 9.33-22.119 15.104-36.311 15.104-0.014 0-0.029 0-0.043 0h-160.51c-84.831 0-153.6 68.769-153.6 153.6v0 422.656c0 84.831 68.769 153.6 153.6 153.6v0h90.624c28.277 0 51.2-22.923 51.2-51.2s-22.923-51.2-51.2-51.2v0h-90.624c-28.277 0-51.2-22.923-51.2-51.2v0-422.656c0-28.277 22.923-51.2 51.2-51.2v0h160.512c42.562-0.111 81.037-17.516 108.787-45.555l0.013-0.013 89.088-88.832 89.088 88.832c27.803 27.836 66.23 45.056 108.679 45.056 0.042 0 0.085 0 0.127 0h160.506c28.277 0 51.2 22.923 51.2 51.2v0 423.168c0 28.277-22.923 51.2-51.2 51.2v0h-501.248c-28.277 0-51.2 22.923-51.2 51.2s22.923 51.2 51.2 51.2v0h501.248c84.831 0 153.6-68.769 153.6-153.6v0-422.656c0-84.831-68.769-153.6-153.6-153.6v0h-160.512c-0.012 0-0.026 0-0.041 0-14.192 0-27.035-5.774-36.309-15.102l-125.442-125.442c-9.25-9.177-21.99-14.848-36.055-14.848-0.014 0-0.029 0-0.043 0h0.002zM782.336 514.816c-0.145-34.388-28.056-62.208-62.463-62.208-34.498 0-62.464 27.966-62.464 62.464s27.966 62.464 62.463 62.464v0c34.529-0.145 62.464-28.17 62.464-62.719 0 0 0 0 0-0.001v0zM583.424 514.816c-0.146-34.387-28.056-62.207-62.463-62.207-34.498 0-62.464 27.966-62.464 62.464s27.966 62.464 62.464 62.464c0.090 0 0.18 0 0.269-0.001h-0.014c34.418-0.29 62.208-28.259 62.208-62.718 0-0.001 0-0.001 0-0.002v0zM384 514.816c-0.145-34.388-28.056-62.208-62.463-62.208-34.498 0-62.464 27.966-62.464 62.464s27.966 62.464 62.463 62.464v0c34.529-0.145 62.464-28.17 62.464-62.719 0 0 0 0 0-0.001v0z" />
<glyph unicode="&#xe93c;" glyph-name="vertical-scroll" horiz-adv-x="230" d="M230.4 844.8c0-63.623-51.577-115.2-115.2-115.2s-115.2 51.577-115.2 115.2c0 63.623 51.577 115.2 115.2 115.2s115.2-51.577 115.2-115.2zM230.4 448c0-63.623-51.577-115.2-115.2-115.2s-115.2 51.577-115.2 115.2c0 63.623 51.577 115.2 115.2 115.2s115.2-51.577 115.2-115.2zM230.4 51.2c0-63.623-51.577-115.2-115.2-115.2s-115.2 51.577-115.2 115.2c0 63.623 51.577 115.2 115.2 115.2s115.2-51.577 115.2-115.2z" />
<glyph unicode="&#xe93d;" glyph-name="video-box" d="M512-64c-282.77 0-512 229.23-512 512s229.23 512 512 512c282.77 0 512-229.23 512-512v0c0-282.77-229.23-512-512-512v0zM512 857.6c-226.216 0-409.6-183.384-409.6-409.6s183.384-409.6 409.6-409.6c226.216 0 409.6 183.384 409.6 409.6v0c0 226.216-183.384 409.6-409.6 409.6v0zM404.736 225.024c-28.051 0.295-50.677 23.104-50.677 51.197 0 18.638 9.959 34.951 24.846 43.906l0.231 0.129 212.736 128-136.192 80.896v-71.424c0-28.277-22.923-51.2-51.2-51.2s-51.2 22.923-51.2 51.2v0 162.048c0.318 28.034 23.118 50.637 51.197 50.637 9.427 0 18.259-2.548 25.845-6.992l-0.242 0.131 286.72-171.776c14.875-9.135 24.646-25.314 24.646-43.776s-9.771-34.641-24.424-43.649l-0.222-0.127-285.952-171.776c-7.445-4.587-16.448-7.337-26.088-7.424h-0.024z" />
<glyph unicode="&#xe93e;" glyph-name="general-tab" horiz-adv-x="1055" d="M975.547 684.151l-337.256 239.869c-30.838 21.74-69.19 34.746-110.58 34.746s-79.742-13.006-111.192-35.155l0.613 0.409-337.495-239.869c-48.303-35.139-79.404-91.391-79.636-154.918v-402.777c0.809-104.859 85.597-189.647 190.379-190.455h134.883c67.96 0 123.053 55.093 123.053 123.053v0 214.443h158.793v-214.443c0-67.96 55.093-123.053 123.053-123.053v0h134.806c104.859 0.809 189.647 85.597 190.455 190.379v402.817c0 0.004 0 0.008 0 0.012 0 63.667-31.28 120.029-79.309 154.555l-0.567 0.388zM595.115 384.315h-134.806c0 0 0 0 0 0-67.876 0-122.916-54.956-123.052-122.8v-214.456h-146.8c0 0 0 0 0 0-43.898 0-79.5 35.518-79.636 79.384v402.753c0.012 26.6 13.062 50.149 33.107 64.603l0.235 0.161 337.495 239.869c12.826 9.108 28.804 14.56 46.055 14.56s33.229-5.452 46.303-14.728l-0.249 0.167 337.495-239.869c20.28-14.616 33.33-38.165 33.342-64.763v-402.742c-0.136-43.879-35.738-79.397-79.636-79.397 0 0 0 0 0 0h-146.8v214.443c-0.137 67.857-55.177 122.813-123.052 122.813 0 0 0 0 0 0v0z" />
<glyph unicode="&#xe93f;" glyph-name="integrations" horiz-adv-x="829" d="M416.050-63.77v0c-40.321 0.003-75.437 22.283-93.712 55.202l-0.279 0.548c-33.239 62.133-65.92 114.4-101.637 164.348l3.038-4.471c-17.508 23.037-38.933 48.608-61.739 74.64-75.331 86.159-161.26 184.297-161.26 318.834 0 229.015 185.653 414.668 414.668 414.668v0c1.308 0.015 2.853 0.024 4.401 0.024 226.598 0 410.291-183.694 410.291-410.291 0-1.547-0.009-3.093-0.026-4.636l0.002 0.236c0-138.223-84.085-235.209-158.495-322.52-21.655-25.11-41.928-48.608-58.975-71.876-32.614-45.263-66.374-97.927-97.386-152.361l-4.668-8.899c-18.936-32.191-53.406-53.455-92.842-53.455-0.485 0-0.969 0.003-1.453 0.010l0.073-0.001zM414.668 856.333c-171.708-0.131-310.87-139.293-311.001-310.988v-0.013c0-95.834 69.111-174.621 135.228-250.644 24.189-27.875 47.226-53.907 67.268-81.551 35.59-49.137 70.727-105.336 102.067-163.874l3.903-7.983c40.664 66.893 79.040 122.957 120.030 176.927l-3.692-5.070c19.351 26.493 41.928 52.755 63.813 78.326 65.656 76.022 133.385 154.809 133.385 253.869 0.011 0.964 0.017 2.102 0.017 3.242 0 169.98-137.796 307.776-307.776 307.776-1.14 0-2.279-0.006-3.416-0.019l0.173 0.001zM414.668 390.522c-85.881 0-155.501 69.62-155.501 155.501s69.62 155.501 155.501 155.501c85.881 0 155.501-69.62 155.501-155.501v0c-0.131-85.828-69.673-155.37-155.488-155.501h-0.013zM414.668 597.856c-28.627 0-51.834-23.207-51.834-51.834s23.207-51.834 51.834-51.834c28.627 0 51.834 23.207 51.834 51.834v0c0 28.627-23.207 51.834-51.834 51.834v0z" />
<glyph unicode="&#xe940;" glyph-name="license" horiz-adv-x="1126" d="M1105.819 838.282l-101.011 101.011c-13.132 12.989-31.197 21.014-51.137 21.014s-38.005-8.024-51.143-21.020l0.006 0.006-389.65-388.64c-50.306 32.934-111.928 52.528-178.127 52.528-0.411 0-0.821-0.001-1.232-0.002h0.064c-0.075 0-0.164 0-0.253 0-184.236 0-333.589-149.353-333.589-333.589s149.353-333.589 333.589-333.589c184.236 0 333.589 149.353 333.589 333.589v0c0.001 0.246 0.001 0.536 0.001 0.827 0 66.395-19.59 128.215-53.305 179.995l0.778-1.275 194.951 194.951 43.94-44.95c12.797-13.214 30.688-21.427 50.499-21.465h1.775c39.744 0.006 71.96 32.226 71.96 71.97 0 20.060-8.207 38.203-21.446 51.255l-0.009 0.008-44.697 45.202 42.93 41.667 50.506-50.506c12.076-9.487 27.497-15.215 44.256-15.215 39.748 0 71.97 32.222 71.97 71.97 0 16.759-5.728 32.179-15.333 44.411l0.118-0.156zM334.599 80.698c-104.6 0-189.396 84.796-189.396 189.396s84.795 189.396 189.396 189.396c104.6 0 189.396-84.795 189.396-189.396 0-0.089 0-0.178 0-0.266v0.014c0-0.075 0-0.165 0-0.254 0-104.74-84.908-189.648-189.648-189.648-0.266 0-0.533 0.001-0.799 0.002h0.041z" />
<glyph unicode="&#xe941;" glyph-name="system-info" d="M968.034 904.489c-34.44 34.345-81.968 55.58-134.455 55.58s-100.015-21.236-134.46-55.585l0.004 0.004-599.703-599.021c-9.133-9.341-16.281-20.665-20.734-33.261l-0.196-0.637-74.167-222.955c-2.852-8.142-4.499-17.529-4.499-27.301 0-46.992 38.095-85.087 85.087-85.087 0.062 0 0.124 0 0.186 0h-0.010c0.229-0.002 0.499-0.004 0.769-0.004 9.414 0 18.458 1.584 26.881 4.5l-0.577-0.174 223.182 74.849c13.107 4.117 24.286 11.183 33.191 20.45l0.025 0.026 501.649 500.511s1.593 1.82 2.73 2.275l94.87 94.87c35.082 34.525 56.819 82.52 56.819 135.591 0 52.959-21.645 100.863-56.572 135.347l-0.020 0.020zM294.391 118.232l-168.809-56.876 56.421 170.629 460.698 459.788 112.387-113.752zM890 713.385l-56.421-55.966-112.387 112.387 55.966 56.649c14.556 14.556 34.665 23.559 56.876 23.559 44.423 0 80.435-36.012 80.435-80.435 0-22.212-9.003-42.32-23.559-56.876v0z" />
<glyph unicode="&#xe942;" glyph-name="version-control" horiz-adv-x="1005" d="M502.618 258.122c-104.867 0-189.878 85.011-189.878 189.878s85.011 189.878 189.878 189.878c104.867 0 189.878-85.011 189.878-189.878v0c-0.127-104.816-85.062-189.751-189.866-189.878h-0.012zM502.618 526.185c-43.797 0-79.302-35.505-79.302-79.302s35.505-79.302 79.302-79.302c43.797 0 79.302 35.505 79.302 79.302v0c-0.127 43.746-35.556 79.175-79.29 79.302h-0.012zM587.951-64h-170.89c-0.002 0-0.003 0-0.005 0-67.092 0-121.555 54.072-122.186 121.015v0.060c0.008 0.153 0.013 0.331 0.013 0.511 0 3.661-1.957 6.865-4.882 8.623l-0.045 0.025-11.393 6.702c-1.46 0.77-3.19 1.222-5.026 1.222s-3.567-0.452-5.086-1.251l0.060 0.029c-17.556-10.279-38.658-16.349-61.178-16.349-11.13 0-21.913 1.483-32.163 4.261l0.859-0.198c-31.923 8.658-58.032 29.161-73.853 56.384l-0.311 0.58-85.333 148.328c-10.277 17.496-16.347 38.537-16.347 60.995 0 44.924 24.287 84.175 60.448 105.339l0.576 0.312c3.946 2.044 6.615 6.062 6.701 10.711v9.171c0.001 0.066 0.002 0.144 0.002 0.222 0 4.223-2.211 7.929-5.538 10.025l-0.049 0.029c-36.9 21.437-61.316 60.777-61.316 105.819 0 22.662 6.181 43.881 16.948 62.063l-0.31-0.565 85.333 147.881c21.593 36.709 60.9 60.958 105.87 60.958 22.451 0 43.491-6.044 61.581-16.594l-0.582 0.313c1.488-0.953 3.302-1.519 5.25-1.519s3.762 0.566 5.289 1.543l-0.039-0.024 10.052 5.585c3.228 1.832 5.371 5.247 5.371 9.161 0 0.156-0.003 0.312-0.010 0.466l0.001-0.022c0.127 67.434 54.758 122.065 122.18 122.192h170.902c67.434-0.127 122.065-54.758 122.192-122.18v-0.012c-0.007-0.145-0.011-0.314-0.011-0.485 0-3.733 1.948-7.011 4.883-8.872l0.043-0.025 9.159-5.138c1.932-1.426 4.36-2.282 6.988-2.282 1.672 0 3.263 0.346 4.705 0.972l-0.077-0.030c17.482 10.227 38.492 16.265 60.913 16.265 44.927 0 84.192-24.247 105.421-60.369l0.312-0.574 85.557-147.658c10.246-17.534 16.296-38.603 16.296-61.085 0-45.013-24.251-84.363-60.401-105.695l-0.572-0.312c-4.097-1.855-6.939-5.822-7.147-10.473l-0.001-0.026v-9.159c0-0.036-0.001-0.079-0.001-0.122 0-4.24 2.316-7.939 5.753-9.901l0.056-0.029h1.34c36.655-21.605 60.861-60.883 60.861-105.814 0-22.383-6.008-43.364-16.498-61.417l0.314 0.585-85.557-147.881c-21.541-36.695-60.805-60.942-105.733-60.942-22.421 0-43.431 6.039-61.493 16.578l0.58-0.313c-1.58 0.882-3.466 1.401-5.473 1.401s-3.893-0.519-5.531-1.43l0.058 0.030-10.276-6.031c-3.224-1.833-5.364-5.246-5.364-9.157 0-0.079 0.001-0.158 0.003-0.236v0.012c-0.127-67.434-54.758-122.065-122.18-122.192h-0.012zM275.211 185.522c0.087 0 0.191 0 0.294 0 22.734 0 43.993-6.312 62.121-17.279l-0.537 0.302 8.265-4.914c36.321-21.243 60.332-60.056 60.332-104.477 0-0.73-0.006-1.459-0.019-2.187l0.002 0.109c0-6.292 5.101-11.393 11.393-11.393v0h170.89c6.292 0 11.393 5.101 11.393 11.393v0c-0.001 0.148-0.001 0.323-0.001 0.497 0 45.174 24.786 84.559 61.499 105.298l0.603 0.313 7.148 4.244c17.627 10.474 38.862 16.665 61.543 16.665s43.916-6.191 62.107-16.975l-0.564 0.31c1.689-1.013 3.726-1.612 5.904-1.612 4.206 0 7.889 2.235 9.928 5.582l0.029 0.051 86.003 149.668c1.003 1.663 1.597 3.67 1.597 5.817 0 4.163-2.232 7.804-5.565 9.792l-0.052 0.029c-37.522 21.643-62.49 61.35-62.994 106.93l-0.001 0.071v8.712c0 0.114-0.001 0.25-0.001 0.386 0 44.871 24.275 84.072 60.408 105.188l0.577 0.311c3.88 2.341 6.434 6.533 6.434 11.323 0 1.882-0.395 3.673-1.106 5.293l0.033-0.085-85.333 147.658c-2.070 3.385-5.747 5.61-9.943 5.61-1.827 0-3.555-0.422-5.093-1.173l0.069 0.030c-17.48-10.37-38.533-16.499-61.017-16.499-22.64 0-43.828 6.214-61.952 17.029l0.554-0.306-7.818 4.468c-37.331 21.218-62.101 60.718-62.101 106.004 0 0.037 0 0.074 0 0.11v-0.006c0.001 0.066 0.002 0.145 0.002 0.223 0 6.292-5.101 11.393-11.393 11.393-0.001 0-0.002 0-0.002 0h-171.783c-6.292 0-11.393-5.101-11.393-11.393v0c0-0.039 0-0.086 0-0.133 0-45.105-24.574-84.47-61.063-105.439l-0.591-0.313-5.585-3.127c-18.295-11.547-40.556-18.399-64.417-18.399-22.33 0-43.258 6.001-61.26 16.477l0.582-0.313c-1.663 1.003-3.67 1.597-5.817 1.597-4.163 0-7.804-2.232-9.792-5.565l-0.029-0.052-86.003-148.105c-0.954-1.649-1.516-3.628-1.516-5.738 0-4.166 2.193-7.82 5.488-9.87l0.049-0.029c37.778-21.271 62.899-61.080 62.995-106.765v-8.726c0 0 0-0.001 0-0.001 0-44.927-24.158-84.212-60.193-105.572l-0.568-0.311c-4.037-1.944-6.773-6.003-6.773-10.701 0-2.054 0.523-3.985 1.443-5.668l-0.031 0.062 85.333-147.881c2.43-3.214 6.246-5.269 10.542-5.269 1.839 0 3.591 0.377 5.181 1.057l-0.086-0.033c17.421 10.252 38.377 16.307 60.747 16.307 0.005 0 0.010 0 0.015 0h-0.001z" />
<glyph unicode="&#xe943;" glyph-name="white-label" horiz-adv-x="901" d="M120.783-64c-18.709 0.031-36.417 4.286-52.231 11.863l0.731-0.315c-41.244 19.404-69.284 60.613-69.284 108.372 0 0.223 0.001 0.445 0.002 0.668v-0.034 717.077c0.131 102.877 83.494 186.24 186.358 186.371h527.947c102.877-0.131 186.24-83.494 186.371-186.358v-717.089c0.001-0.188 0.002-0.411 0.002-0.633 0-47.759-28.040-88.968-68.556-108.063l-0.728-0.309c-15.089-7.219-32.789-11.468-51.473-11.547h-0.027c-0.037 0-0.080 0-0.124 0-29.357 0-56.225 10.657-76.947 28.314l0.167-0.138-202.999 169.050c-13.286 11.346-30.663 18.249-49.653 18.249s-36.367-6.903-49.759-18.337l-203.123-169.193c-20.622-17.28-47.405-27.817-76.645-27.944h-0.028zM450.338 259.32c0.029 0 0.064 0 0.098 0 45.519 0 87.226-16.318 119.591-43.424l-0.291 0.238 222.167-184.754v742.25c-0.131 42.756-34.822 77.366-77.596 77.366 0 0 0 0 0 0h-527.935c0 0 0 0 0 0-42.774 0-77.465-34.61-77.596-77.353v-741.801l222.167 184.754c32.083 26.986 73.799 43.449 119.355 43.648h0.043z" />
<glyph unicode="&#xe944;" glyph-name="widgets-and-addons" d="M282.396 511.943h-116.736c-91.492 0-165.66 74.169-165.66 165.66v0 116.736c0 91.492 74.169 165.66 165.66 165.66v0h116.736c91.492 0 165.66-74.169 165.66-165.66v0-116.736c0-91.492-74.169-165.66-165.66-165.66v0zM165.66 832.114c-20.862 0-37.774-16.912-37.774-37.774v0-116.736c0 0 0 0 0-0.001 0-20.736 16.81-37.547 37.547-37.547 0.080 0 0.16 0 0.24 0.001h116.724c20.736 0 37.547 16.81 37.547 37.547v116.736c0 0.068 0.001 0.148 0.001 0.228 0 20.736-16.81 37.547-37.547 37.547 0 0-0.001 0-0.001 0v0zM858.34 511.943h-116.736c-91.492 0-165.66 74.169-165.66 165.66v0 116.736c0 91.492 74.169 165.66 165.66 165.66v0h116.736c91.492 0 165.66-74.169 165.66-165.66v0-116.736c0-91.492-74.169-165.66-165.66-165.66v0zM741.604 832.114c0 0 0 0-0.001 0-20.736 0-37.547-16.81-37.547-37.547 0-0.080 0-0.16 0.001-0.24v0.012-116.736c0-20.736 16.81-37.547 37.547-37.547v0h116.736c0.068 0 0.148-0.001 0.228-0.001 20.736 0 37.547 16.81 37.547 37.547 0 0 0 0.001 0 0.001v0 116.736c0 20.862-16.912 37.774-37.774 37.774v0zM282.396-64h-116.736c-91.492 0-165.66 74.169-165.66 165.66v0 116.736c0 91.492 74.169 165.66 165.66 165.66v0h116.736c91.492 0 165.66-74.169 165.66-165.66v0-116.736c0-91.492-74.169-165.66-165.66-165.66v0zM165.66 255.943c-0.068 0-0.148 0.001-0.228 0.001-20.736 0-37.547-16.81-37.547-37.547 0 0 0-0.001 0-0.001v0-116.736c0-20.862 16.912-37.774 37.774-37.774v0h116.736c0 0 0 0 0.001 0 20.736 0 37.547 16.81 37.547 37.547 0 0.080 0 0.16-0.001 0.24v-0.012 116.736c0 20.736-16.81 37.547-37.547 37.547v0zM858.34-64h-116.736c-91.492 0-165.66 74.169-165.66 165.66v0 116.736c0 91.492 74.169 165.66 165.66 165.66v0h116.736c91.492 0 165.66-74.169 165.66-165.66v0-116.736c0-91.492-74.169-165.66-165.66-165.66v0zM741.604 255.943c-20.736 0-37.547-16.81-37.547-37.547v0-116.736c0-0.068-0.001-0.148-0.001-0.228 0-20.736 16.81-37.547 37.547-37.547 0 0 0.001 0 0.001 0h116.736c20.862 0 37.774 16.912 37.774 37.774v0 116.736c0 0 0 0 0 0.001 0 20.736-16.81 37.547-37.547 37.547-0.080 0-0.16 0-0.24-0.001h0.012z" />
<glyph unicode="&#xe945;" glyph-name="all-widgets" d="M139.947 345.6h129.707c77.29 0 139.947-62.656 139.947-139.947v-129.707c0-77.29-62.656-139.947-139.947-139.947h-129.707c-77.29 0-139.947 62.656-139.947 139.947v129.707c0 77.29 62.656 139.947 139.947 139.947zM752.754 345.6h132.892c76.411 0 138.354-61.943 138.354-138.354v-132.892c0-76.411-61.943-138.354-138.354-138.354h-132.892c-76.411 0-138.354 61.943-138.354 138.354v132.892c0 76.411 61.943 138.354 138.354 138.354zM754.574 960h129.252c77.416 0 140.174-62.758 140.174-140.174v-129.252c0-77.416-62.758-140.174-140.174-140.174h-129.252c-77.416 0-140.174 62.758-140.174 140.174v129.252c0 77.416 62.758 140.174 140.174 140.174zM139.719 960h130.162c77.165 0 139.719-62.554 139.719-139.719v-130.162c0-77.165-62.554-139.719-139.719-139.719h-130.162c-77.165 0-139.719 62.554-139.719 139.719v130.162c0 77.165 62.554 139.719 139.719 139.719z" />
<glyph unicode="&#xe946;" glyph-name="blurbs-and-cta-widgets" d="M409.6 140.8h409.6c113.108 0 204.8 91.692 204.8 204.8v0 409.6c0 113.108-91.692 204.8-204.8 204.8v0h-409.6c-113.108 0-204.8-91.692-204.8-204.8v0-407.78c0.129-114.061 92.559-206.491 206.608-206.62h0.012zM256 38.4c-84.831 0-153.6 68.769-153.6 153.6v0 381.156c0 28.277-22.923 51.2-51.2 51.2s-51.2-22.923-51.2-51.2v0-381.156c0-141.385 114.615-256 256-256v0h381.156c28.277 0 51.2 22.923 51.2 51.2s-22.923 51.2-51.2 51.2v0z" />
<glyph unicode="&#xe947;" glyph-name="contact-widgets" horiz-adv-x="1396" d="M555.132 546.987l-479.108 385.086c26.241 17.403 58.439 27.81 93.060 27.927h1058.163c34.653-0.097 66.856-10.508 93.723-28.321l-0.632 0.394-478.177-385.086c-38.86-31.592-88.953-50.725-143.515-50.725s-104.655 19.133-143.936 51.057l0.421-0.331zM1396.364 782.196v-677.081c0-93.4-75.715-169.115-169.115-169.115v0h-1058.133c-93.329 0.176-168.939 75.786-169.115 169.098v677.098c-0.001 0.222-0.002 0.485-0.002 0.747 0 35.157 10.787 67.795 29.233 94.783l-0.373-0.578 484.693-390.361c50.227-40.144 114.519-64.609 184.506-65.163l0.124-0.001c0.412-0.002 0.899-0.003 1.386-0.003 70.381 0 134.933 24.953 185.293 66.496l-0.497-0.398 484.073 389.43c17.507-26.116 27.941-58.255 27.941-92.831 0-0.746-0.005-1.491-0.015-2.234l0.001 0.113z" />
<glyph unicode="&#xe948;" glyph-name="content-widgets" horiz-adv-x="1138" d="M849.794 960c0.15 0 0.328 0 0.506 0 158.592 0 287.19-128.421 287.478-286.946v-449.829c-0.288-158.692-128.999-287.226-287.731-287.226-0.089 0-0.178 0-0.267 0h-562.048c0 0 0 0 0 0-158.732 0-287.443 128.534-287.731 287.198v449.577c0.144 158.573 128.653 287.082 287.212 287.226h562.581zM940.31 587.062l4.551 4.551c6.487 7.616 10.432 17.57 10.432 28.444s-3.946 20.828-10.484 28.506l0.052-0.062c-7.873 8.067-18.53 13.386-30.415 14.4l-0.179 0.012c-0.733 0.044-1.591 0.069-2.454 0.069-11.353 0-21.69-4.35-29.435-11.475l0.031 0.028-256.632-203.536c-15.32-12.745-35.201-20.48-56.889-20.48s-41.568 7.735-57.034 20.597l0.145-0.117-256.126 204.8c-7.107 5.263-16.047 8.425-25.725 8.425-24.018 0-43.488-19.47-43.488-43.488 0-9.742 3.203-18.736 8.614-25.985l-0.082 0.115 7.080-7.332 258.908-202.272c30.223-24.098 68.972-38.667 111.123-38.667s80.9 14.569 111.485 38.945l-0.362-0.279z" />
<glyph unicode="&#xe949;" glyph-name="image-widgets" d="M887.467-41.244v2.276c-32.732-15.692-71.14-24.909-111.688-25.031h-519.779c-141.385 0-256 114.615-256 256v0 88.292c1.221 0.551 2.271 1.238 3.199 2.059l-0.013-0.011c104.903 87.381 217.543 131.527 333.596 131.527v0c239.844 0 465.806-186.368 550.684-452.38zM773.689 960h-517.689c-141.385 0-256-114.615-256-256v0-337.92c91.377 70.78 207.13 114.129 332.93 116.048l0.439 0.005c9.33 0 19.115 0 28.217 0 104.071-6.788 199.035-40.671 279.433-94.588l-2.043 1.29c142.842-95.27 250.349-233.701 304.723-396.455l1.567-5.408c48.603 47.588 78.735 113.877 78.735 187.203 0 0.266 0 0.533-0.001 0.799v-0.041 523.378c0.009 0.817 0.015 1.781 0.015 2.747 0 141.984-114.268 257.279-255.858 258.94l-0.157 0.001zM732.729 604.103c-0.068 0-0.148 0-0.228 0-42.478 0-76.914 34.435-76.914 76.914s34.435 76.914 76.914 76.914c42.478 0 76.914-34.435 76.914-76.913v0c0 0 0 0 0 0 0-42.398-34.306-76.784-76.674-76.913h-0.013z" />
<glyph unicode="&#xe94a;" glyph-name="message" horiz-adv-x="1138" d="M849.794 960c0.15 0 0.328 0 0.506 0 158.592 0 287.19-128.421 287.478-286.946v-449.829c-0.288-158.692-128.999-287.226-287.731-287.226-0.089 0-0.178 0-0.267 0h-562.048c0 0 0 0 0 0-158.732 0-287.443 128.534-287.731 287.198v449.577c0.144 158.573 128.653 287.082 287.212 287.226h562.581zM940.31 587.062l4.551 4.551c6.487 7.616 10.432 17.57 10.432 28.444s-3.946 20.828-10.484 28.506l0.052-0.062c-7.873 8.067-18.53 13.386-30.415 14.4l-0.179 0.012c-0.733 0.044-1.591 0.069-2.454 0.069-11.353 0-21.69-4.35-29.435-11.475l0.031 0.028-256.632-203.536c-15.32-12.745-35.201-20.48-56.889-20.48s-41.568 7.735-57.034 20.597l0.145-0.117-256.126 204.8c-7.107 5.263-16.047 8.425-25.725 8.425-24.018 0-43.488-19.47-43.488-43.488 0-9.742 3.203-18.736 8.614-25.985l-0.082 0.115 7.080-7.332 258.908-202.272c30.223-24.098 68.972-38.667 111.123-38.667s80.9 14.569 111.485 38.945l-0.362-0.279z" />
<glyph unicode="&#xe94b;" glyph-name="off-grid-widgets" horiz-adv-x="1041" d="M883.433 676.771c77.252-4.721 140.095-60.978 154.818-134.608l0.179-1.072c1.494-8.285 2.348-17.821 2.348-27.557 0-88.015-69.798-159.728-157.063-162.806l-0.281-0.008zM813.615 900.422v-765.207c0-32.904-26.674-59.578-59.578-59.578v0h-19.316c-0.217-0.001-0.475-0.002-0.732-0.002-39.55 0-74.887 18.036-98.236 46.331l-0.173 0.216c-34.096 42.335-85.759 69.33-143.744 69.818l-0.082 0.001h-73.775v-184.087c-0.524-39.829-32.934-71.914-72.838-71.914-0.166 0-0.331 0.001-0.497 0.002h-40.237c-40.102 0-72.611 32.509-72.611 72.611v0 199.68c-135.169 41.188-231.816 164.77-231.816 310.924 0 179.173 145.249 324.422 324.422 324.422 0.171 0 0.341 0 0.512 0h166.141c57.892 0.184 109.539 26.762 143.563 68.324l0.262 0.33c23.522 28.512 58.86 46.548 98.41 46.548 0.257 0 0.514-0.001 0.771-0.002h19.976c0.046 0 0.1 0 0.155 0 6.027 0 11.815-1.023 17.2-2.904l-0.366 0.111c4.129-1.275 7.674-2.776 11.030-4.582l-0.325 0.16c18.694-9.9 31.337-29.012 31.882-51.126l0.001-0.074z" />
</font>
</defs>
</svg>
